Стартрек: Возмездие / Star Trek Into Darkness (Джей Джей Абрамс / J.J. Abrams) [2013, Фантастика, боевик, приключения, BDRip-AVC] VO (Andi) + Sub (rus., eng.)

Ответить на тему
 
Автор Сообщение

user ®

Стаж: 7 лет 7 месяцев

Сообщений: 20008

Пост Пост: #1 от 29-Авг-2013 04:20

[Цитировать]

Стартрек: Возмездие / Star Trek Into Darkness
Страна: США / Bad Robot, Paramount Pictures, Skydance Productions
Жанр: Фантастика, боевик, приключения
Год выпуска: 2013
Продолжительность: 02:12:05-Перевод: Одноголосый закадровый Andi
Cубтитры: русские, английские, английские (SDH / Color)
Формат субтитров: softsub (SRT)-Режиссер: Джей Джей Абрамс / J.J. Abrams
В ролях: Крис Пайн, Закари Куинто, Зои Салдана, Карл Урбан, Бенедикт Камбербэтч, Саймон Пегг, Элис Ив, Антон Ельчин, Джон Чо, Питер Уэллер
Описание: Вернувшись на Землю, команда корабля «Энтерпрайз» обнаруживает, что деятельность и принципы их организации подорваны изнутри. Флот скован необъяснимым ужасом и бездействует, пока мир все глубже погружается в бездну. Капитан Кирк берет на себя руководство операцией по поимке злодея, ответственного за этот хаос и способного уничтожить все человечество. В запутанной игре не на жизнь, а на смерть, любовь и дружба будут принесены в жертву ради единственного, что осталось у Кирка — его команды.- -Релиз от:
Автор рипа: potroks-Качество видео: BDRip-AVC [Star.Trek.Into.Darkness.2013.1080p.BluRay.AVC.TrueHD.7.1-PublicHD]
Формат видео: MKV
Видео: х.264, 1016x424 (2,40:1), 23,976 fps, 1923 Кbps, 0.186 bit/pixel
Аудио: 48 kHz, AC3 Dolby Digital, 3/2 (L,C,R,l,r) + LFE ch, 448.00 kbps | RUS

MediaInfo

Общее
Уникальный идентификатор : 195036011947966602544437232263699065204 (0x92BA91CEF9BAA37EB34D172318DF6974)
Полное имя : Startrek.Vozmezdije.2013.RUS.BDRip.x264.-HELLYWOOD.mkv
Формат : Matroska
Версия формата : Version 4 / Version 2
Размер файла : 2,16 Гбайт
Продолжительность : 2 ч. 12 м.
Общий поток : 2346 Кбит/сек
Название фильма : HELLYWOOD - rip by potroks
Дата кодирования : UTC 2013-08-28 20:31:36
Программа кодирования : mkvmerge v5.9.0 ('On The Loose') built on Dec 15 2012 16:39:58
Библиотека кодирования : libebml v1.3.0 + libmatroska v1.4.0
Видео
Идентификатор : 1
Формат : AVC
Формат/Информация : Advanced Video Codec
Профиль формата : High@L4.1
Параметр CABAC формата : Да
Параметр ReFrames формата : 11 кадров
Идентификатор кодека : V_MPEG4/ISO/AVC
Продолжительность : 2 ч. 12 м.
Битрейт : 1923 Кбит/сек
Ширина : 1016 пикселей
Высота : 424 пикселя
Соотношение сторон : 2,40:1
Режим частоты кадров : Постоянный
Частота кадров : 23,976 кадра/сек
Цветовое пространство : YUV
Субдискретизация насыщенности : 4:2:0
Битовая глубина : 8 бит
Тип развёртки : Прогрессивная
Бит/(Пиксели*Кадры) : 0.186
Размер потока : 1,71 Гбайт (79%)
Заголовок : Star Trek Into Darkness
Библиотека кодирования : x264 core 130 r2273 b3065e6
Настройки программы : cabac=1 / ref=11 / deblock=1:-2:-2 / analyse=0x3:0x133 / me=umh / subme=11 / psy=1 / psy_rd=1.02:0.00 / mixed_ref=1 / me_range=48 / chroma_me=1 / trellis=2 / 8x8dct=1 / cqm=0 / deadzone=21,11 / fast_pskip=0 / chroma_qp_offset=-2 / threads=8 / lookahead_threads=2 / sliced_threads=0 / nr=0 / decimate=1 / interlaced=0 / bluray_compat=0 / constrained_intra=0 / bframes=12 / b_pyramid=2 / b_adapt=2 / b_bias=0 / direct=3 / weightb=1 / open_gop=0 / weightp=2 / keyint=250 / keyint_min=23 / scenecut=40 / intra_refresh=0 / rc_lookahead=60 / rc=2pass / mbtree=0 / bitrate=1923 / ratetol=1.0 / qcomp=0.70 / qpmin=0 / qpmax=69 / qpstep=4 / cplxblur=20.0 / qblur=0.5 / vbv_maxrate=20000 / vbv_bufsize=20000 / nal_hrd=none / ip_ratio=1.35 / pb_ratio=1.25 / aq=1:0.90
Язык : English
Default : Да
Forced : Нет
Аудио
Идентификатор : 2
Формат : AC-3
Формат/Информация : Audio Coding 3
Расширение режима : CM (complete main)
Параметр Endianness формата : Big
Идентификатор кодека : A_AC3
Продолжительность : 2 ч. 12 м.
Вид битрейта : Постоянный
Битрейт : 448 Кбит/сек
Каналы : 6 каналов
Расположение каналов : Front: L C R, Side: L R, LFE
Частота : 48,0 КГц
Битовая глубина : 16 бит
Метод сжатия : С потерями
Размер потока : 423 Мбайт (19%)
Заголовок : VO | DD 5.1 @ 448 kbps
Язык : Russian
Default : Да
Forced : Да
Текст #1
Идентификатор : 3
Формат : UTF-8
Идентификатор кодека : S_TEXT/UTF8
Идентификатор кодека/Информация : UTF-8 Plain Text
Язык : Russian
Default : Нет
Forced : Нет
Текст #2
Идентификатор : 4
Формат : UTF-8
Идентификатор кодека : S_TEXT/UTF8
Идентификатор кодека/Информация : UTF-8 Plain Text
Язык : English
Default : Нет
Forced : Нет
Текст #3
Идентификатор : 5
Формат : UTF-8
Идентификатор кодека : S_TEXT/UTF8
Идентификатор кодека/Информация : UTF-8 Plain Text
Заголовок : SDH / Color
Язык : English
Default : Нет
Forced : Нет

log@x.264

x264 [info]: frame I:1355 Avg QP:17.74 size: 58142
x264 [info]: frame P:52659 Avg QP:21.00 size: 17701
x264 [info]: frame B:136019 Avg QP:22.54 size: 6572
x264 [info]: consecutive B-frames: 6.7% 7.2% 13.6% 20.0% 14.2% 24.4% 6.1% 2.4% 2.1% 1.3% 0.9% 0.4% 0.7%
x264 [info]: mb I I16..4: 7.0% 75.3% 17.7%
x264 [info]: mb P I16..4: 2.1% 12.1% 2.1% P16..4: 31.1% 33.6% 9.6% 1.3% 0.1% skip: 7.9%
x264 [info]: mb B I16..4: 0.2% 1.3% 0.2% B16..8: 37.0% 19.5% 3.1% direct: 5.3% skip:33.3% L0:42.3% L1:47.5% BI:10.2%
x264 [info]: 8x8 transform intra:74.5% inter:68.4%
x264 [info]: direct mvs spatial:95.9% temporal:4.1%
x264 [info]: coded y,uvDC,uvAC intra: 78.0% 84.0% 58.3% inter: 23.2% 27.4% 5.9%
x264 [info]: i16 v,h,dc,p: 24% 15% 4% 57%
x264 [info]: i8 v,h,dc,ddl,ddr,vr,hd,vl,hu: 9% 7% 5% 10% 15% 14% 15% 11% 13%
x264 [info]: i4 v,h,dc,ddl,ddr,vr,hd,vl,hu: 10% 9% 5% 9% 15% 14% 15% 10% 13%
x264 [info]: i8c dc,h,v,p: 34% 25% 18% 23%
x264 [info]: Weighted P-Frames: Y:8.9% UV:7.0%
x264 [info]: ref P L0: 50.4% 11.4% 15.8% 5.7% 4.4% 3.2% 2.8% 1.6% 1.5% 1.3% 1.3% 0.5% 0.0%
x264 [info]: ref B L0: 74.2% 11.8% 5.4% 2.7% 1.9% 1.5% 1.2% 0.7% 0.5% 0.2%
x264 [info]: ref B L1: 92.6% 7.4%
x264 [info]: kb/s:1922.67
x264 [total]: encoded 190033 frames, 5.34 fps, 1922.67 kb/s
TIME
------------------------------
Общее время кодирования: 11 hour 16 min 28 sec
Файл получился на: 1817.99 mb
Скачать

Скачать торрент!

Как скачивать? · Что такое торрент? · Рейтинг и ограничения

Сайт не распространяет и не хранит электронные версии произведений, а лишь предоставляет доступ к создаваемому пользователями каталогу ссылок на торрент-файлы, которые содержат только списки хеш-сумм

[Профиль] [ЛС]
Показать сообщения:    
Ответить на тему

Текущее время: Сегодня 20:38

Часовой пояс: GMT + 4



Вы не можете начинать темы
Вы не можете отвечать на сообщения
Вы не можете редактировать свои сообщения
Вы не можете удалять свои сообщения
Вы не можете голосовать в опросах
Вы не можете прикреплять файлы к сообщениям
Вы не можете скачивать файлы