Преображение / The Makeover (Джон Грэй / John Gray) [2013, США, комедия, HDTVRip] DVO + Original Eng

Ответить на тему
 
Автор Сообщение

user ®

Стаж: 7 лет 7 месяцев

Сообщений: 20008

Пост Пост: #1 от 29-Авг-2013 01:10

[Цитировать]

Преображение / The Makeover«He's her work in progress.» Страна: США
Жанр: комедия
Год выпуска: 2013
Продолжительность: 01:36:14
Перевод: Профессиональный (двухголосый закадровый) [студия Elrom]
Cубтитры: нет
Оригинальная аудиодорожка: английский-Режиссер: Джон Грэй / John Gray
В ролях: Джулия Стайлз, Дэвид Уолтон, Камрин Менхейм, Фрэнсис Фишер, Лонни Фармер, Альберт М. Чен, Моурин Кейллер, Нада Деспотович, Билл Мутос-Описание: Ханна Хиггинс умный консультант в области образования. Она выставляет свою кандидатуру в конгресс, чтобы продвинуть реформу образования. Но проблема в том, что Ханна ужасна как кандидат — ее холодная, элитарная персона отталкивает бостонских избирателей.
Ханна Хиггинс и ее деловой партнер Коллин Пикеринг не собираются так легко сдаваться. Они вербуют кандидата, который определенно является человеком из народа…-Доп. информация: премьера (мир) 27 января 2013


-Качество видео: HDTVRip
Формат видео: AVI
Видео: 704x400 (16:9), 25 fps, XviD MPEG-4 ~1773 kbps avg, 0.27 bit/pixel
Аудио: 48 kHz, АС3, 2 ch, ~192.00 kbps avg Ru
Аудио 2: 48 kHz, АС3, 2 ch, ~192.00 kbps avg En

MediaInfo

Общее
Полное имя : E:\The.Makeover.2013.XviD.HDTVRip.avi
Формат : AVI
Формат/Информация : Audio Video Interleave
Размер файла : 1,46 Гбайт
Продолжительность : 1 ч. 36 м.
Общий поток : 2172 Кбит/сек
Название фильма : The Makeover (2013)
Программа кодирования : VirtualDubMod 1.5.10.3 (build 2550/release)
Библиотека кодирования : VirtualDubMod build 2550/release
Правообладатель : ed_rez
Видео
Идентификатор : 0
Формат : MPEG-4 Visual
Профиль формата : Advanced Simple@L5
Параметр BVOP формата : 2
Параметр QPel формата : Нет
Параметр GMC формата : Без точки перехода
Параметр матрицы формата : Выборочная
Идентификатор кодека : XVID
Идентификатор кодека/Подсказка : XviD
Продолжительность : 1 ч. 36 м.
Битрейт : 1774 Кбит/сек
Ширина : 704 пикселя
Высота : 400 пикселей
Соотношение сторон : 16:9
Частота кадров : 23,976 кадра/сек
Цветовое пространство : YUV
Субдискретизация насыщенности : 4:2:0
Битовая глубина : 8 бит
Тип развёртки : Прогрессивная
Метод сжатия : С потерями
Бит/(Пиксели*Кадры) : 0.263
Размер потока : 1,19 Гбайт (82%)
Библиотека кодирования : XviD 73
Аудио #1
Идентификатор : 1
Формат : AC-3
Формат/Информация : Audio Coding 3
Расширение режима : CM (complete main)
Параметр Endianness формата : Big
Идентификатор кодека : 2000
Продолжительность : 1 ч. 36 м.
Вид битрейта : Постоянный
Битрейт : 192 Кбит/сек
Каналы : 2 канала
Расположение каналов : Front: L R
Частота : 48,0 КГц
Битовая глубина : 16 бит
Метод сжатия : С потерями
Размер потока : 132 Мбайт (9%)
Выравнивание : Разделение по промежуткам
Продолжительность промежутка : 42 мс. (1,00 видеокадр)
Время предзагрузки промежутка : 500 мс.
Аудио #2
Идентификатор : 2
Формат : AC-3
Формат/Информация : Audio Coding 3
Расширение режима : CM (complete main)
Параметр Endianness формата : Big
Идентификатор кодека : 2000
Продолжительность : 1 ч. 36 м.
Вид битрейта : Постоянный
Битрейт : 192 Кбит/сек
Каналы : 2 канала
Расположение каналов : Front: L R
Частота : 48,0 КГц
Битовая глубина : 16 бит
Метод сжатия : С потерями
Размер потока : 132 Мбайт (9%)
Выравнивание : Разделение по промежуткам
Продолжительность промежутка : 42 мс. (1,00 видеокадр)
Время предзагрузки промежутка : 500 мс.

Скриншоты

Скачать

Скачать торрент!

Как скачивать? · Что такое торрент? · Рейтинг и ограничения

Сайт не распространяет и не хранит электронные версии произведений, а лишь предоставляет доступ к создаваемому пользователями каталогу ссылок на торрент-файлы, которые содержат только списки хеш-сумм

[Профиль] [ЛС]
Показать сообщения:    
Ответить на тему

Текущее время: Сегодня 02:12

Часовой пояс: GMT + 4



Вы не можете начинать темы
Вы не можете отвечать на сообщения
Вы не можете редактировать свои сообщения
Вы не можете удалять свои сообщения
Вы не можете голосовать в опросах
Вы не можете прикреплять файлы к сообщениям
Вы не можете скачивать файлы