Стартрек: Возмездие / Star Trek Into Darkness (Джей Джей Абрамс / J.J. Abrams) [2013, США, Фантастика, боевик, приключения, BDRip] VO (Andi)

Ответить на тему
 
Автор Сообщение

user ®

Стаж: 7 лет 7 месяцев

Сообщений: 20008

Пост Пост: #1 от 29-Авг-2013 01:10

[Цитировать]

Стартрек: Возмездие / Star Trek Into Darkness- Год выпуска: 2013
Выпущено: США / Paramount Pictures, Skydance Productions, Bad Robot
Жанр: фантастика, боевик, приключения
Продолжительность: 02:12:05
Перевод: Одноголосый закадровый Andi
Cубтитры: нет-Режиссер:
Джей Джей Абрамс / J.J. Abrams-В ролях:
Крис Пайн (Kirk), Закари Куинто (Spock), Бенедикт Камбербэтч (John Harrison), Саймон Пегг (Scotty), Карл Урбан (Bones), Зои Салдана (Uhura), Элис Ив (Carol), Джон Чо (Sulu), Антон Ельчин (Chekov), Питер Уэллер (Marcus), Брюс Гринвуд (Pike), Леонард Нимой (Spock Prime), Ноэль Кларк (Thomas Harewood)-Описание:
Вернувшись на Землю, команда корабля «Энтерпрайз» обнаруживает, что деятельность и принципы их организации подорваны изнутри. Флот скован необъяснимым ужасом и бездействует, пока мир все глубже погружается в бездну. Капитан Кирк берет на себя руководство операцией по поимке злодея, ответственного за этот хаос и способного уничтожить все человечество. В запутанной игре не на жизнь, а на смерть, любовь и дружба будут принесены в жертву ради единственного, что осталось у Кирка — его команды.-IMDB | КиноПоиск | Сэмпл |-Качество: BDRip [Star.Trek.Into.Darkness.2013.1080p.BluRay.AVC.TrueHD.7.1-PublicHD]
Формат: AVI
Видео: 720x304 (2.37:1), 23.976 fps, XviD build 73 ~1383 kbps avg, 0.26 bit/pixel
Аудио: 48 kHz, AC3 Dolby Digital, 2/0 (L,R) ch, ~192.00 kbps avg
-

Скриншоты

MediaInfo

General
Complete name                            : D:\Star_Trek_Vozmezdie_2013_BDRip_VO_by_Dalemake.avi
Format                                   : AVI
Format/Info                              : Audio Video Interleave
File size                                : 1.45 GiB
Duration                                 : 2h 12mn
Overall bit rate                         : 1 573 Kbps
Writing application                      : VirtualDubMod 1.5.10.3 | www.virtualdub-fr.org || (build 2550/release)
Writing library                          : VirtualDubMod build 2550/release
Video
ID                                       : 0
Format                                   : MPEG-4 Visual
Format profile                           : Advanced Simple@L5
Format settings, BVOP                    : 1
Format settings, QPel                    : No
Format settings, GMC                     : No warppoints
Format settings, Matrix                  : Custom
Codec ID                                 : XVID
Codec ID/Hint                            : XviD
Duration                                 : 2h 12mn
Bit rate                                 : 1 383 Kbps
Width                                    : 720 pixels
Height                                   : 304 pixels
Display aspect ratio                     : 2.35:1
Frame rate                               : 23.976 fps
Color space                              : YUV
Chroma subsampling                       : 4:2:0
Bit depth                                : 8 bits
Scan type                                : Progressive
Compression mode                         : Lossy
Bits/(Pixel*Frame)                       : 0.264
Stream size                              : 1.28 GiB (88%)
Writing library                          : XviD 73
Audio
ID                                       : 1
Format                                   : AC-3
Format/Info                              : Audio Coding 3
Mode extension                           : CM (complete main)
Format settings, Endianness              : Big
Codec ID                                 : 2000
Duration                                 : 2h 4mn
Bit rate mode                            : Constant
Bit rate                                 : 192 Kbps
Channel(s)                               : 2 channels
Channel positions                        : Front: L R
Sampling rate                            : 48.0 KHz
Bit depth                                : 16 bits
Compression mode                         : Lossy
Stream size                              : 171 MiB (11%)
Alignment                                : Split accross interleaves
Interleave, duration                     : 44 ms (1.06 video frame)
Interleave, preload duration             : 500 ms
-
Скачать

Скачать торрент!

Как скачивать? · Что такое торрент? · Рейтинг и ограничения

Сайт не распространяет и не хранит электронные версии произведений, а лишь предоставляет доступ к создаваемому пользователями каталогу ссылок на торрент-файлы, которые содержат только списки хеш-сумм

[Профиль] [ЛС]
Показать сообщения:    
Ответить на тему

Текущее время: Сегодня 07:01

Часовой пояс: GMT + 4



Вы не можете начинать темы
Вы не можете отвечать на сообщения
Вы не можете редактировать свои сообщения
Вы не можете удалять свои сообщения
Вы не можете голосовать в опросах
Вы не можете прикреплять файлы к сообщениям
Вы не можете скачивать файлы