Русалочка / The Little Mermaid (Рон Клементс / Ron Clements, Джон Маскер / John Musker) [1989, фэнтези, мелодрама, семейный, BDRip-AVC] Dub + AVO (Юрий Товбин) + Rus Sub

Ответить на тему
 
Автор Сообщение

user ®

Стаж: 13 лет

Сообщений: 15041

Пост Пост: #1 от 28-Авг-2013 22:00

[Цитировать]

Русалочка / The Little Mermaid
Страна: США
Жанр: фэнтези, мелодрама, семейный
Продолжительность: 01:22:48
Год выпуска: 1989
Перевод 1: Профессиональный (дублированный)
Перевод 2: Авторский (одноголосый закадровый) Юрий Товбин
Русские субтитры: есть
Режиссёр: Рон Клементс / Ron Clements, Джон Маскер / John Musker
Описание: Таинственные глубины моря хранят немало тайн, а обитатели океана могут рассказать множество удивительных историй. И самой невероятной из них была и остаётся история русалочки Ариэль. Дочь могущественного царя подводного мира Тритона, она однажды влюбляется в прекрасного и мужественного принца. Но разве они могут быть вместе — земной человек и морская дева? Однако настоящие чувства преодолевают любые преграды. Ради своей любви Ариэль готова пойти на всё. Даже если для обретения своего счастья ей навсегда придётся покинуть родной океан и навеки стать земной девушкой…
Семпл: http://multi-up.com/898102
Качество: BDRip-AVC Исходник Blu-Ray Remux (hdreactor)
Формат: MKV
Видео: 1152x648 (16:9), 23.976 fps, AVC, ~3000 Kbps, 0.168 bits/pixel
Аудио 1: 48 kHz, AC3 Dolby Digital, 3/2 (L,C,R,l,r) + LFE ch, ~448.00 kbps
Аудио 2: 48 kHz, AC3 Dolby Digital, 2/0 (L,R) ch, ~192 kbps
Субтитры: русские, английские

Log

x264.exe: --pass 2 --bitrate 3000 --preset medium --ref 9 --deblock -1:-1 --merange 32 --bframes 9 --direct auto --b-adapt 2 --trellis 2 --no-fast-pskip --psy-rd 1.00:0.10 --partitions all --subme 10 --me umh --rc-lookahead 50 --stats "D:\Temp\0132.log" --sar 1:1 --output "D:\Temp\0132.264" "D:\Temp\0132.avs"
avs [info]: 1152x648p 1:1 @ 2500000/104271 fps (cfr)
x264 [info]: using SAR=1/1
x264 [info]: using cpu capabilities: MMX2 SSE2Fast SSEMisalign LZCNT
x264 [info]: profile High, level 4.0
x264 [info]: frame I:882 Avg QP:17.57 size:100947
x264 [info]: frame P:33285 Avg QP:20.98 size: 28056
x264 [info]: frame B:84963 Avg QP:22.38 size: 9885
x264 [info]: consecutive B-frames: 4.3% 6.3% 17.5% 31.0% 27.2% 10.8% 1.4% 0.5% 0.3% 0.5%
x264 [info]: mb I I16..4: 9.4% 69.8% 20.8%
x264 [info]: mb P I16..4: 1.4% 7.8% 2.1% P16..4: 44.8% 16.4% 15.7% 0.5% 0.2% skip:11.1%
x264 [info]: mb B I16..4: 0.1% 0.8% 0.2% B16..8: 39.6% 8.3% 2.5% direct: 3.8% skip:44.8% L0:46.1% L1:50.6% BI: 3.3%
x264 [info]: 8x8 transform intra:69.7% inter:63.4%
x264 [info]: direct mvs spatial:94.9% temporal:5.1%
x264 [info]: coded y,uvDC,uvAC intra: 81.6% 82.6% 60.9% inter: 20.1% 22.5% 5.1%
x264 [info]: i16 v,h,dc,p: 37% 18% 15% 31%
x264 [info]: i8 v,h,dc,ddl,ddr,vr,hd,vl,hu: 7% 5% 7% 12% 18% 14% 15% 10% 12%
x264 [info]: i4 v,h,dc,ddl,ddr,vr,hd,vl,hu: 9% 7% 4% 11% 16% 13% 14% 11% 15%
x264 [info]: i8c dc,h,v,p: 44% 24% 16% 15%
x264 [info]: Weighted P-Frames: Y:2.8% UV:1.7%
x264 [info]: ref P L0: 42.6% 8.2% 20.4% 7.4% 6.6% 4.6% 4.5% 2.3% 2.5% 0.8% 0.0%
x264 [info]: ref B L0: 64.1% 15.8% 8.1% 4.2% 3.0% 2.6% 1.6% 0.6%
x264 [info]: ref B L1: 90.9% 9.1%
x264 [info]: kb/s:2999.13

Подробные технические данные

GeneralUnique ID : 217672108854995457732034165851547905333 (0xA3C21F8D52D076549A5A79FFF5862D35)Complete name : D:\torrent\Мои Раздачи\The Little Mermaid.mkvFormat : MatroskaFormat version : Version 4 / Version 2File size : 2.11 GiBDuration : 1h 22mnOverall bit rate : 3 641 KbpsEncoded date : UTC 2013-08-28 16:44:43Writing application : mkvmerge v6.3.0 ('You can't stop me!') built on Jun 27 2013 22:06:07Writing library : libebml v1.3.0 + libmatroska v1.4.0
VideoID : 1Format : AVCFormat/Info : Advanced Video CodecFormat profile : High@L4.0Format settings, CABAC : YesFormat settings, ReFrames : 9 framesCodec ID : V_MPEG4/ISO/AVCDuration : 1h 22mnBit rate : 3 000 KbpsWidth : 1 152 pixelsHeight : 648 pixelsDisplay aspect ratio : 16:9Frame rate mode : ConstantFrame rate : 23.976 fpsColor space : YUVChroma subsampling : 4:2:0Bit depth : 8 bitsScan type : ProgressiveBits/(Pixel*Frame) : 0.168Stream size : 1.69 GiB (80%)Writing library : x264 core 133 r2334 a3ac64bEncoding settings : cabac=1 / ref=9 / deblock=1:-1:-1 / analyse=0x3:0x133 / me=umh / subme=10 / psy=1 / psy_rd=1.00:0.10 / mixed_ref=1 / me_range=32 / chroma_me=1 / trellis=2 / 8x8dct=1 / cqm=0 / deadzone=21,11 / fast_pskip=0 / chroma_qp_offset=-3 / threads=6 / lookahead_threads=1 / sliced_threads=0 / nr=0 / decimate=1 / interlaced=0 / bluray_compat=0 / constrained_intra=0 / bframes=9 / b_pyramid=2 / b_adapt=2 / b_bias=0 / direct=3 / weightb=1 / open_gop=0 / weightp=2 / keyint=250 / keyint_min=23 / scenecut=40 / intra_refresh=0 / rc_lookahead=50 / rc=2pass / mbtree=1 / bitrate=3000 / ratetol=1.0 / qcomp=0.60 / qpmin=0 / qpmax=69 / qpstep=4 / cplxblur=20.0 / qblur=0.5 / ip_ratio=1.40 / aq=1:1.00Default : YesForced : No
Audio #1ID : 2Format : AC-3Format/Info : Audio Coding 3Mode extension : CM (complete main)Format settings, Endianness : BigCodec ID : A_AC3Duration : 1h 22mnBit rate mode : ConstantBit rate : 448 KbpsChannel count : 6 channelsChannel positions : Front: L C R, Side: L R, LFESampling rate : 48.0 KHzBit depth : 16 bitsCompression mode : LossyStream size : 265 MiB (12%)Title : DubLanguage : RussianDefault : YesForced : No
Audio #2ID : 3Format : AC-3Format/Info : Audio Coding 3Mode extension : CM (complete main)Format settings, Endianness : BigCodec ID : A_AC3Duration : 1h 22mnBit rate mode : ConstantBit rate : 192 KbpsChannel count : 2 channelsChannel positions : Front: L RSampling rate : 48.0 KHzBit depth : 16 bitsCompression mode : LossyStream size : 114 MiB (5%)Title : AVO Юрий ТовбинLanguage : RussianDefault : NoForced : No
Text #1ID : 4Format : UTF-8Codec ID : S_TEXT/UTF8Codec ID/Info : UTF-8 Plain TextLanguage : RussianDefault : NoForced : No
Text #2ID : 5Format : UTF-8Codec ID : S_TEXT/UTF8Codec ID/Info : UTF-8 Plain TextLanguage : EnglishDefault : NoForced : No
Menu00:00:00.000 : :00:00:00.00000:02:17.846 : :00:02:17.84600:03:47.185 : :00:03:47.18500:05:51.643 : :00:05:51.64300:08:56.035 : :00:08:56.03500:10:48.982 : :00:10:48.98200:15:01.359 : :00:15:01.35900:19:04.685 : :00:19:04.68500:22:18.462 : :00:22:18.46200:25:15.723 : :00:25:15.72300:29:06.244 : :00:29:06.24400:32:56.057 : :00:32:56.05700:34:21.476 : :00:34:21.47600:38:49.160 : :00:38:49.16000:40:00.690 : :00:40:00.69000:41:38.413 : :00:41:38.41300:45:42.615 : :00:45:42.61500:50:57.054 : :00:50:57.05400:52:22.556 : :00:52:22.55600:57:21.772 : :00:57:21.77200:59:35.947 : :00:59:35.94701:02:29.204 : :01:02:29.20401:05:45.650 : :01:05:45.65001:10:04.742 : :01:10:04.74201:12:48.739 : :01:12:48.73901:15:33.154 : :01:15:33.15401:18:19.403 : :01:18:19.403

Скриншоты

Скачать

Скачать торрент! Русалочка / The Little Mermaid (Рон Клементс / Ron Clements, Джон Маскер / John Musker) [1989, фэнтези, мелодрама, семейный, BDRip-AVC] Dub + AVO (Юрий Товбин) + Rus Sub

Как скачивать? · Что такое торрент? · Рейтинг и ограничения

Сайт не распространяет и не хранит электронные версии произведений, а лишь предоставляет доступ к создаваемому пользователями каталогу ссылок на торрент-файлы, которые содержат только списки хеш-сумм

[Профиль] [ЛС]
Показать сообщения:    
Ответить на тему

Текущее время: Сегодня 20:41

Часовой пояс: GMT + 4



Вы не можете начинать темы
Вы не можете отвечать на сообщения
Вы не можете редактировать свои сообщения
Вы не можете удалять свои сообщения
Вы не можете голосовать в опросах
Вы не можете прикреплять файлы к сообщениям
Вы не можете скачивать файлы