Мастер / Техперсонал / Roadie (Алан Рудольф / Alan Rudolph) [1980, США, музыкальная комедия, HDTV 1080i] DVO (НТВ+) + Sub Eng + Original Eng

Ответить на тему
 
Автор Сообщение

user ®

Стаж: 7 лет 7 месяцев

Сообщений: 20008

Пост Пост: #1 от 28-Авг-2013 22:00

[Цитировать]

Мастер / Техперсонал / Roadie
Страна: США
Студия: Alive Enterprises, Vivant Productions
Жанр: музыкальная комедия
Год выпуска: 1980
Продолжительность: 01:41:20
Перевод: Профессиональный (двухголосый закадровый) НТВ+
Cубтитры: английские
Оригинальная аудиодорожка: английский
Режиссер: Алан Рудольф / Alan Rudolph
В ролях: Мит Лоаф, Кэки Хантер, Арт Карни, Гейлард Сартейн, Дон Корнелиус, Ронда Бейтс, Джо Спано, Ричард Мэрион, Сонни Карл Дэвис, Джинджер Вэрн, Элис Купер
Описание: Молодой техасец, талантливый электронщик, примыкает к странствующему театру в качестве администратора.

Доп. информация: английская дорога и субтитры взяты с оригинального DVD, найденного в сети
Тип релиза: HDTV 1080i
Контейнер: MKV
Видео: AVC 1920x1080 (16:9)) 25.0fps Bit rate 6091Kbps
Аудио 1: MP2 48.0 KHz 2ch. 192kbps rus
Аудио 2: AC3 48.0 KHz 6ch. 448kbps eng

MediaInfo

General
Complete name : E:\torrent\Master_HDTV1080i.mkv
Format : Matroska
File size : 4.86 GiB
Duration : 1h 41mn
Overall bit rate : 6 868 Kbps
Encoded date : UTC 2013-08-27 07:00:35
Writing application : mkvmerge v5.7.0 ('The Whirlwind') built on Jul 8 2012 20:08:51
Writing library : libebml v1.2.3 + libmatroska v1.3.0
Video
ID : 1
Format : AVC
Format/Info : Advanced Video Codec
Format profile : High@L4.0
Format settings, CABAC : Yes
Format settings, ReFrames : 3 frames
Muxing mode : Container profile=Unknown@4.0
Codec ID : V_MPEG4/ISO/AVC
Duration : 1h 41mn
Bit rate : 6 091 Kbps
Width : 1 920 pixels
Height : 1 080 pixels
Display aspect ratio : 16:9
Frame rate : 50.000 fps
Original frame rate : 25.000 fps
Standard : Component
Color space : YUV
Chroma subsampling : 4:2:0
Bit depth : 8 bits
Scan type : Interlaced
Scan order : Top Field First
Bits/(Pixel*Frame) : 0.059
Stream size : 4.31 GiB (89%)
Title : Master_HDTV1080i
Color primaries : BT.709-5, BT.1361, IEC 61966-2-4, SMPTE RP177
Transfer characteristics : BT.709-5, BT.1361
Matrix coefficients : BT.709-5, BT.1361, IEC 61966-2-4 709, SMPTE RP177
Audio #1
ID : 2
Format : MPEG Audio
Format version : Version 1
Format profile : Layer 2
Codec ID : A_MPEG/L2
Codec ID/Hint : MP2
Duration : 1h 41mn
Bit rate mode : Constant
Bit rate : 192 Kbps
Channel(s) : 2 channels
Sampling rate : 48.0 KHz
Stream size : 139 MiB (3%)
Title : Master_MP2_DVO_NTV+
Language : Russian
Audio #2
ID : 3
Format : AC-3
Format/Info : Audio Coding 3
Mode extension : CM (complete main)
Codec ID : A_AC3
Duration : 1h 41mn
Bit rate mode : Constant
Bit rate : 448 Kbps
Channel(s) : 6 channels
Channel positions : Front: L C R, Side: L R, LFE
Sampling rate : 48.0 KHz
Bit depth : 16 bits
Stream size : 325 MiB (7%)
Title : Master_AC3_original eng
Text
ID : 4
Format : UTF-8
Codec ID : S_TEXT/UTF8
Codec ID/Info : UTF-8 Plain Text
Title : Master_subtitle eng

Скриншот с названием фильма

Скриншоты

Сравнение с DVD


Скачать

Скачать торрент!

Как скачивать? · Что такое торрент? · Рейтинг и ограничения

Сайт не распространяет и не хранит электронные версии произведений, а лишь предоставляет доступ к создаваемому пользователями каталогу ссылок на торрент-файлы, которые содержат только списки хеш-сумм

[Профиль] [ЛС]
Показать сообщения:    
Ответить на тему

Текущее время: Сегодня 20:20

Часовой пояс: GMT + 4



Вы не можете начинать темы
Вы не можете отвечать на сообщения
Вы не можете редактировать свои сообщения
Вы не можете удалять свои сообщения
Вы не можете голосовать в опросах
Вы не можете прикреплять файлы к сообщениям
Вы не можете скачивать файлы