Школа «Диаз» / Diaz: Don't Clean Up This Blood (Даниэль Викари / Daniele Vicari) [2012, США, Италия, Румыния, Франция, BDRip 720p] AVO (Антон Алексеев) + Sub Eng + Original Ita

Ответить на тему
 
Автор Сообщение

user ®

Стаж: 7 лет 7 месяцев

Сообщений: 20008

Пост Пост: #1 от 28-Авг-2013 15:45

[Цитировать]

Школа «Диаз» / Diaz: Don't Clean Up This Blood
Страна: США
Жанр: Италия, Румыния, Франция
Год выпуска: 2012
Продолжительность: 02:01:01
Перевод: Авторский (одноголосый закадровый) Антон Алексеев
Cубтитры: английские
Оригинальная аудиодорожка: итальянский
Режиссер: Даниэль Викари / Daniele Vicari
В ролях: Клаудио Сантамария, Дженнифер Ульрих, Элио Джермано, Ральф Амуссу, Фабрицио Ронджоне, Ренато Скарпа, Маттиа Сбраджа, Антонио Жерарди, Паоло Калабрези
Описание: Ретроспектива событий 21 июля 2001 года на саммите большой восьмёрки в Генуе, когда группа мирно протестующих активистов была жестоко избита и арестована полицией с применением самых жутких издевательств и пыток. Правозащитная организация Международная Амнистия позднее назовёт эти события самым грубым нарушением прав человека в Западной Европе со времен Второй мировой войны.
Сэмпл: http://multi-up.com/897895
Тип релиза: BDRip 720p
Контейнер: MKV
Видео: MPEG-4 AVC, 9518 Кбит/с, 1280x544
Аудио: Русский, 640 Кбит/сек, 48.0 КГц, 6 каналов, 16 бит, AC3
Аудио 2: Итальянский, 640 Кбит/сек, 48.0 КГц, 6 каналов, 16 бит, AC3

MediaInfo

Общее
Уникальный идентификатор : 232846035319016584894276944303801588401 (0xAF2C83E32EA00E31BDE67D78D6E15AB1)
Полное имя : C:\Users\к\Desktop\КИНО HD\Diaz.Dont.Clean.Up.This.Blood.2012.720p.x264.mkv
Формат : Matroska
Версия формата : Version 4 / Version 2
Размер файла : 9,31 Гбайт
Продолжительность : 2 ч. 1 м.
Общий поток : 11,0 Мбит/сек
Дата кодирования : UTC 2013-08-26 14:35:42
Программа кодирования : mkvmerge v6.3.0 ('You can't stop me!') built on Jun 28 2013 20:09:41
Библиотека кодирования : libebml v1.3.0 + libmatroska v1.4.0
Видео
Идентификатор : 1
Формат : AVC
Формат/Информация : Advanced Video Codec
Профиль формата : High@L4.1
Параметр CABAC формата : Да
Параметр ReFrames формата : 12 кадров
Идентификатор кодека : V_MPEG4/ISO/AVC
Продолжительность : 2 ч. 1 м.
Битрейт : 9518 Кбит/сек
Ширина : 1280 пикселей
Высота : 544 пикселя
Соотношение сторон : 2,35:1
Режим частоты кадров : Постоянный
Частота кадров : 23,976 кадра/сек
Цветовое пространство : YUV
Субдискретизация насыщенности : 4:2:0
Битовая глубина : 8 бит
Тип развёртки : Прогрессивная
Бит/(Пиксели*Кадры) : 0.570
Размер потока : 8,05 Гбайт (86%)
Заголовок : Diaz: Don't Clean Up This Blood (2012)
Библиотека кодирования : x264 core 133 r2334kMod a3ac64b
Настройки программы : cabac=1 / ref=12 / deblock=1:-3:-3 / analyse=0x3:0x113 / me=tesa / subme=10 / psy=1 / fade_compensate=0.00 / psy_rd=1.10:0.00 / mixed_ref=1 / me_range=16 / chroma_me=1 / trellis=2 / 8x8dct=1 / cqm=0 / deadzone=21,11 / fast_pskip=0 / chroma_qp_offset=-2 / threads=18 / lookahead_threads=3 / sliced_threads=0 / nr=0 / decimate=0 / interlaced=0 / bluray_compat=0 / constrained_intra=0 / bframes=8 / b_pyramid=2 / b_adapt=2 / b_bias=0 / direct=3 / weightb=1 / open_gop=0 / weightp=2 / keyint=250 / keyint_min=23 / scenecut=40 / intra_refresh=0 / rc=crf / mbtree=0 / crf=18.0000 / qcomp=0.80 / qpmin=0 / qpmax=69 / qpstep=4 / ip_ratio=1.30 / pb_ratio=1.20 / aq=1:0.60
Язык : Italian
Default : Да
Forced : Нет
Аудио #1
Идентификатор : 2
Формат : AC-3
Формат/Информация : Audio Coding 3
Расширение режима : CM (complete main)
Параметр Endianness формата : Big
Идентификатор кодека : A_AC3
Продолжительность : 2 ч. 1 м.
Вид битрейта : Постоянный
Битрейт : 640 Кбит/сек
Каналы : 6 каналов
Расположение каналов : Front: L C R, Side: L R, LFE
Частота : 48,0 КГц
Битовая глубина : 16 бит
Метод сжатия : С потерями
Размер потока : 554 Мбайт (6%)
Заголовок : Anton Alekseev
Язык : Russian
Default : Нет
Forced : Нет
Аудио #2
Идентификатор : 3
Формат : AC-3
Формат/Информация : Audio Coding 3
Расширение режима : CM (complete main)
Параметр Endianness формата : Big
Идентификатор кодека : A_AC3
Продолжительность : 2 ч. 1 м.
Вид битрейта : Постоянный
Битрейт : 640 Кбит/сек
Каналы : 6 каналов
Расположение каналов : Front: L C R, Side: L R, LFE
Частота : 48,0 КГц
Битовая глубина : 16 бит
Метод сжатия : С потерями
Размер потока : 554 Мбайт (6%)
Заголовок : DD 5.1 @ 640Kbps
Язык : Italian
Default : Да
Forced : Нет
Текст #1
Идентификатор : 4
Формат : UTF-8
Идентификатор кодека : S_TEXT/UTF8
Идентификатор кодека/Информация : UTF-8 Plain Text
Заголовок : Forced
Язык : English
Default : Да
Forced : Да
Текст #2
Идентификатор : 5
Формат : UTF-8
Идентификатор кодека : S_TEXT/UTF8
Идентификатор кодека/Информация : UTF-8 Plain Text
Язык : English
Default : Нет
Forced : Нет
Меню
00:00:00.000 : en:Chapter 1
00:11:44.537 : en:Chapter 2
00:20:14.713 : en:Chapter 3
00:30:52.434 : en:Chapter 4
00:43:46.541 : en:Chapter 5
00:52:56.465 : en:Chapter 6
01:01:43.241 : en:Chapter 7
01:11:39.754 : en:Chapter 8
01:22:32.406 : en:Chapter 9
01:28:45.195 : en:Chapter 10
01:38:35.159 : en:Chapter 11
01:51:03.490 : en:Chapter 12
По умолчанию фильм запускается с оригинальной дорожкой + английские субтитры

Скриншоты

Скачать

Скачать торрент!

Как скачивать? · Что такое торрент? · Рейтинг и ограничения

Сайт не распространяет и не хранит электронные версии произведений, а лишь предоставляет доступ к создаваемому пользователями каталогу ссылок на торрент-файлы, которые содержат только списки хеш-сумм

[Профиль] [ЛС]
Показать сообщения:    
Ответить на тему

Текущее время: Сегодня 18:20

Часовой пояс: GMT + 4



Вы не можете начинать темы
Вы не можете отвечать на сообщения
Вы не можете редактировать свои сообщения
Вы не можете удалять свои сообщения
Вы не можете голосовать в опросах
Вы не можете прикреплять файлы к сообщениям
Вы не можете скачивать файлы