Тариф "Счастливая семья" (Алина Чеботарева) [2013 г., Мелодрама, HDTVRip]

Ответить на тему
 
Автор Сообщение

user ®

Стаж: 7 лет 7 месяцев

Сообщений: 20008

Пост Пост: #1 от 28-Авг-2013 03:10

[Цитировать]

Тариф "Счастливая семья"Год выпуска: 2013.
Жанр: Мелодрама.
Продолжительность: 01:29:33.
Режиссер: Алина Чеботарева.
В ролях:
Мария Андреева, Алексей Анищенко, Кирилл Жандаров, Евгений Капорин, Сергей Романюк, Вита Смачелюк, Любава Грешнова, Дарина Лобода, Ольга Радчук, Денис Толяренко.
Описание:
Нина получает известие о том, что ее дедушка Павел Алексеевич Назаров попал в больницу с обширным инфарктом. Девушка срочно выезжает в Старосельск, чтобы выяснить, что случилось с ее дедом.
Когда Нина приезжает в городок, к ней начинают проявлять внимания ее бывший одноклассник, хамоватый предприниматель Славик, и преемник ее деда на должности директора школы, неуверенный в себе Антон. Да еще к ней по пустякам каждый раз придирается оперативник Виктор.
Нина просит приехать своего столичного жениха, однокурсника Кирилла, и привезти из Москвы лекарство для Павла Алексеевича. Все мужчины, окружающие Нину проявляют себя по-разному. Нина переживает измену, предательство, подлость и все равно верит, что у нее будет семейное счастье...

Доп. информация:
Страна: Россия .
Киностудия: Кинокомпания «Упс».
Авторы сценария: Иван Тарифов, Мария Бек, Елена Бойко.
Оператор: Сергей Борденюк.
Композиторы: Роман Дудчик, Галина Фесенко.
Художник: Петр Корягин.
Премьера: 25 августа 2013 года.

Еще постер


Качество: HDTVRip (исходник - HDTV, FULL HD 1080i)
Формат: AVI
Видео: 640x352 (1.82:1), 25 fps, XviD build 65 ~1038 kbps avg, 0.18 bit/pixel
Аудио: 48 kHz, MPEG Layer 3, 2 ch, ~128.00 kbps avg

Отчет MediaInfo

Общее
Полное имя : Tarif.Schastlivaya.semya.2013.XviD.HDTVRip_753.avi
Формат : AVI
Формат/Информация : Audio Video Interleave
Размер файла : 753 Мбайт
Продолжительность : 1 ч. 29 м.
Общий поток : 1176 Кбит/сек
Программа кодирования : VirtualDubMod 1.5.10.3 | www.virtualdub-fr.org || (build 2550/release)
Библиотека кодирования : VirtualDubMod build 2550/release
Видео
Идентификатор : 0
Формат : MPEG-4 Visual
Профиль формата : Advanced Simple@L5
Параметр BVOP формата : 2
Параметр QPel формата : Нет
Параметр GMC формата : Без точки перехода
Параметр матрицы формата : Выборочная
Идентификатор кодека : XVID
Идентификатор кодека/Подсказка : XviD
Продолжительность : 1 ч. 29 м.
Битрейт : 1038 Кбит/сек
Ширина : 640 пикселей
Высота : 352 пикселя
Соотношение сторон : 16:9
Частота кадров : 25,000 кадров/сек
Цветовое пространство : YUV
Субдискретизация насыщенности : 4:2:0
Битовая глубина : 8 бит
Тип развёртки : Прогрессивная
Метод сжатия : С потерями
Бит/(Пиксели*Кадры) : 0.184
Размер потока : 665 Мбайт (88%)
Библиотека кодирования : XviD 65
Аудио
Идентификатор : 1
Формат : MPEG Audio
Версия формата : Version 1
Профиль формата : Layer 3
Идентификатор кодека : 55
Идентификатор кодека/Подсказка : MP3
Продолжительность : 1 ч. 29 м.
Вид битрейта : Постоянный
Битрейт : 128 Кбит/сек
Каналы : 2 канала
Частота : 48,0 КГц
Метод сжатия : С потерями
Размер потока : 82,0 Мбайт (11%)
Выравнивание : Соединение по промежуткам
Продолжительность промежутка : 40 мс. (1,00 видеокадр)
Время предзагрузки промежутка : 504 мс.
Библиотека кодирования : LAME3.99r
Настройки программы : -m s -V 4 -q 2 -lowpass 17 -b 128

Скриншот с названием

Скриншоты

Альтернативный хост

Скачать

Скачать торрент!

Как скачивать? · Что такое торрент? · Рейтинг и ограничения

Сайт не распространяет и не хранит электронные версии произведений, а лишь предоставляет доступ к создаваемому пользователями каталогу ссылок на торрент-файлы, которые содержат только списки хеш-сумм

[Профиль] [ЛС]
Показать сообщения:    
Ответить на тему

Текущее время: Сегодня 15:55

Часовой пояс: GMT + 4



Вы не можете начинать темы
Вы не можете отвечать на сообщения
Вы не можете редактировать свои сообщения
Вы не можете удалять свои сообщения
Вы не можете голосовать в опросах
Вы не можете прикреплять файлы к сообщениям
Вы не можете скачивать файлы