Мужество / Сын тигра / Dammu / Dhammu (Бояпати Срину / Boyapati Sreenu) [2012, Индия, Боевик, BDRip] МVO (Red Media) + Sub Rus (песни)

Ответить на тему
 
Автор Сообщение

user ®

Стаж: 12 лет

Сообщений: 15124

Пост Пост: #1 от 27-Авг-2013 20:50

[Цитировать]

Мужество / Сын тигра / Dammu- Страна: Индия
Жанр: Боевик
Год выпуска: 2012
Продолжительность: 02:35:07-Язык: Телугу
Перевод: Профессиональный (многоголосый закадровый) - Red Media
Cубтитры: Pусские (только песни)--Режиссер: Бояпати Срину / Boyapati Sreenu-В ролях: НТР-младший, Триша Кришнан, Картика Наир, Нассер, Али, Вену Тоттемпуди--Описание: Вражда двух старинных княжеских семей не прекращается 70 лет. Вся область в страхе наблюдает, как от рук подлого и беспринципного врага один за другим гибнут представители славного семейства Васиредди, которые испокон веков слыли заступниками всех бедняков. И вот настал момент, когда последний князь в роду сложил голову, а его наследник родился мертвым. В огромном дворце остались только женщины и престарелый тесть последнего князя, а в округе воцарилось насилие.
Прошло 25 лет. «Богатый парень с 63 лакхами» ищет себе подходящую девушку для создания семьи. И надо же - нужная девушка сама наезжает на него на роскошной машине. Но вот ведь в чем загвоздка: Сатья - дочь магната, который даже у собаки проверяет родословную перед покупкой, а наш герой - сирота из приюта. И где ему теперь найти семью? Ну, разве что назваться исчезнувшим четверть века назад наследником семьи Васиредди. Правда, новоявленный дедушка сказал, что ему придется кое с кем разобраться... До поры до времени герой не представляет, насколько серьезную и опасную роль ему придется сыграть...-- | Трейлер | Сэмпл--Качество видео: BDRip (исх. Blu-Ray [DDR])
Формат видео: AVI-Видео: 672x288 (2.33:1), 24 fps, XviD build 50 ~1081 kbps avg, 0.23 bit/pixel
Аудио: 44.1 kHz, MP3, 2 ch, 192 kbps
Формат субтитров: softsub (SRT)-Доп. информация:
  • о субтитрах: внешние к песням
  • о звуке: в промежутке с 01:32:56 - 01:34:00 вставлен VO rost05
-Перевод субтитров: witaa (спасибо!)
Синхронизация звука: soso4eg--Сэмпл / Sample-
-

Скриншот с названием


-

Скриншоты


-

MI

Общее
Полное имя : C:\INDIYA\[Релизы]\Syn.Tigra.2012.BDRip.XviD.soso4eg\Syn.Tigra.2012.BDRip.XviD.soso4eg.avi
Формат : AVI
Формат/Информация : Audio Video Interleave
Размер файла : 1,39 Гбайт
Продолжительность : 2 ч. 35 м.
Общий поток : 1283 Кбит/сек
Программа кодирования : VirtualDubMod 1.5.10.3 | www.virtualdub-fr.org || (build 2550/release)
Видео
Идентификатор : 0
Формат : MPEG-4 Visual
Профиль формата : Advanced Simple@L5
Параметр BVOP формата : 1
Параметр QPel формата : Нет
Параметр GMC формата : Без точки перехода
Параметр матрицы формата : Выборочная
Идентификатор кодека : XVID
Идентификатор кодека/Подсказка : XviD
Продолжительность : 2 ч. 35 м.
Битрейт : 1081 Кбит/сек
Ширина : 672 пикселя
Высота : 288 пикселей
Соотношение сторон : 2,35:1
Частота кадров : 24,000 кадра/сек
Цветовое пространство : YUV
Субдискретизация насыщенности : 4:2:0
Битовая глубина : 8 бит
Тип развёртки : Прогрессивная
Метод сжатия : С потерями
Бит/(Пиксели*Кадры) : 0.233
Размер потока : 1,17 Гбайт (84%)
Библиотека кодирования : XviD 1.2.1 (UTC 2008-12-04)
Аудио
Идентификатор : 1
Формат : MPEG Audio
Версия формата : Version 1
Профиль формата : Layer 3
Идентификатор кодека : 55
Идентификатор кодека/Подсказка : MP3
Продолжительность : 2 ч. 35 м.
Вид битрейта : Постоянный
Битрейт : 192 Кбит/сек
Каналы : 2 канала
Частота : 44,1 КГц
Метод сжатия : С потерями
Размер потока : 213 Мбайт (15%)
Выравнивание : Разделение по промежуткам
Продолжительность промежутка : 42 мс. (1,00 видеокадр)
Время предзагрузки промежутка : 500 мс.
- -
Скачать

Скачать торрент! Мужество / Сын тигра / Dammu / Dhammu (Бояпати Срину / Boyapati Sreenu) [2012, Индия, Боевик, BDRip] МVO (Red Media) + Sub Rus (песни)

Как скачивать? · Что такое торрент? · Рейтинг и ограничения

Сайт не распространяет и не хранит электронные версии произведений, а лишь предоставляет доступ к создаваемому пользователями каталогу ссылок на торрент-файлы, которые содержат только списки хеш-сумм

[Профиль] [ЛС]
Показать сообщения:    
Ответить на тему

Текущее время: Сегодня 22:06

Часовой пояс: GMT + 4



Вы не можете начинать темы
Вы не можете отвечать на сообщения
Вы не можете редактировать свои сообщения
Вы не можете удалять свои сообщения
Вы не можете голосовать в опросах
Вы не можете прикреплять файлы к сообщениям
Вы не можете скачивать файлы