Мастер-отступник / Железный палец Шаолиня / Renegade Master / Shaolin Iron Finger / Tie tou tie zhi tie bu shan (Ван Хунчжан / Wong Hung-Cheung) [1977, Тайвань, боевые искусства, VHSRip] AVO (Сергей Кузнецов)

Ответить на тему
 
Автор Сообщение

user ®

Стаж: 11 лет

Сообщений: 15151

Пост Пост: #1 от 27-Авг-2013 14:30

[Цитировать]

Мастер-отступник / Железный палец Шаолиня / Renegade Master / Shaolin Iron Finger / Tie tou tie zhi tie bu shan
Страна: Тайвань
Жанр: боевые искусства
Год выпуска: 1977
Продолжительность: 01:29:01
Перевод: Авторский (одноголосый закадровый) Сергей Кузнецов
Cубтитры: нет
Режиссер: Ван Хунчжан / Wong Hung-Cheung
В ролях: Картер Вонг, Кам Конг, Джеймс Тьен, Рики Чен, Ху Цзинь, Вэй Хун, Жэнь Хао, Вань Чжуншань
Описание: Картер Вонг изображает революционера, который является экспертом в стиле Железного пальца кунг-фу. Когда его мать похитили, он был вынужден сразиться с противником Джеймсом Тьеном, чтобы уничтожить группу бандитов, включая людей монаха Кам Конга.
Благодарность: За исходник благодарность выражается шурик 555.
Сэмпл: http://multi-up.com/897701
Качество видео: VHSRip
Формат видео: AVI
Видео: 704x448 (1.57:1), 23.976 fps, XviD build 50 ~2060 kbps avg, 0.27 bit/pixel
Аудио: 48 kHz, MPEG Layer 3, 2 ch, ~128.00 kbps avg

MediaInfo

Format : AVI
Format/Info : Audio Video Interleave
File size : 1,37 Гбайт
Duration : 1 ч. 29 м.
Overall bit rate : 2198 Кбит/сек
Writing application : VirtualDubMod 1.5.10.3 | www.virtualdub-fr.org || (build 2550/release)
Writing library : VirtualDubMod build 2550/release
Видео
ID : 0
Format : MPEG-4 Visual
Format profile : Advanced Simple@L5
Format settings, BVOP : 2
Format settings, QPel : Нет
Format settings, GMC : Без точки перехода
Format settings, Matrix : Default (MPEG)
Codec ID : XVID
Codec ID/Hint : XviD
Duration : 1 ч. 29 м.
Bit rate : 2061 Кбит/сек
Width : 704 пикселя
Height : 448 пикселей
Display aspect ratio : 16:10
Frame rate : 23,976 кадра/сек
Color space : YUV
Chroma subsampling : 4:2:0
Bit depth : 8 бит
Scan type : Прогрессивная
Compression mode : С потерями
Bits/(Pixel*Frame) : 0.273
Stream size : 1,28 Гбайт (94%)
Writing library : XviD 1.2.1 (UTC 2008-12-04)
Аудио
ID : 1
Format : MPEG Audio
Format version : Version 1
Format profile : Layer 3
Codec ID : 55
Codec ID/Hint : MP3
Duration : 1 ч. 29 м.
Bit rate mode : Постоянный
Bit rate : 128 Кбит/сек
Channel(s) : 2 канала
Sampling rate : 48,0 КГц
Compression mode : С потерями
Stream size : 81,5 Мбайт (6%)
Alignment : Соединение по промежуткам
Interleave, duration : 42 мс. (1,00 видеокадр)
Interleave, preload duration : 504 мс.
Writing library : LAME3.99r
Encoding settings : -m s -V 4 -q 2 -lowpass 17 -b 128

Скриншот c названием фильма

Скриншоты

Скачать

Скачать торрент! Мастер-отступник / Железный палец Шаолиня / Renegade Master / Shaolin Iron Finger / Tie tou tie zhi tie bu shan (Ван Хунчжан / Wong Hung-Cheung) [1977, Тайвань, боевые искусства, VHSRip] AVO (Сергей Кузнецов)

Как скачивать? · Что такое торрент? · Рейтинг и ограничения

Сайт не распространяет и не хранит электронные версии произведений, а лишь предоставляет доступ к создаваемому пользователями каталогу ссылок на торрент-файлы, которые содержат только списки хеш-сумм

[Профиль] [ЛС]
Показать сообщения:    
Ответить на тему

Текущее время: Сегодня 18:32

Часовой пояс: GMT + 4



Вы не можете начинать темы
Вы не можете отвечать на сообщения
Вы не можете редактировать свои сообщения
Вы не можете удалять свои сообщения
Вы не можете голосовать в опросах
Вы не можете прикреплять файлы к сообщениям
Вы не можете скачивать файлы