Северо-запад / Nordvest (Михаэль Ноер / Michael Noer) [2013, Дания, криминальная драма, DVDRip] VO (den904) + Original Dan

Ответить на тему
 
Автор Сообщение

user ®

Стаж: 7 лет 7 месяцев

Сообщений: 20008

Пост Пост: #1 от 27-Авг-2013 11:20

[Цитировать]

Северо-запад / Nordvest
Страна: Дания
Жанр: криминальная драма
Год выпуска: 2013
Продолжительность: 01:26:51
Перевод: Одноголосый закадровый den904 по субтитрам Антона Кедрова
Cубтитры: нет
Оригинальная аудиодорожка: датский
Режиссер: Михаэль Ноер / Michael Noer
В ролях: Густав Дюэкьер Гис, Оскар Дюэкьер Гис, Лене Мария Кристенсен, Николас Вествуд Кидд, Роланд Мюллер, Дульфи Аль-Джабури
Описание: Северо-запад Копенгагена является одним из самых бедных и многонациональных районов города. 18-летний Каспер живет здесь со своей матерью, младшим братом и маленькой сестрой. Чтобы свести концы с концами, он вместе со своим другом Робином совершает мелкие кражи из домов, сбывая краденое местному главарю Джамалю, контролирующему небольшую банду в этом районе. Но амбициозный Каспер не хочет, рискуя собой, зависеть от него, рыская ночью по домам за те небольшие наличные, которые он платит взамен. После встречи с Бьорном, одним из лидеров организованной преступной группировки, он соглашается работать на него, понимая, что это поможет подняться ему на совершенно иной, новый уровень в уголовной иерархии криминального мира. Поначалу все идет гладко, пока Джамаль и банда не решают отомстить ему, воспринимая его уход как предательство, что неминуемо приведет к вооруженной схватке.
Это становится главным испытанием в жизни Каспера: достаточно ли он безжалостен для этого столкновения, сможет ли он защитить брата, невольно подтолкнув его к совершению преступления, и захочет ли сам выбраться из этого преступного мира?

Сэмпл: http://multi-up.com/897672
Качество видео: DVDRip
Формат видео: AVI
Видео: Xvid 720x384 25.00fps 1931Kbps
Аудио 1: Dolby AC3 48000Hz stereo 192Kbps [русский]
Аудио 2: Dolby AC3 48000Hz stereo 192Kbps [датский]

MediaInfo

General
Complete name : D:\TORRENTS\Nordvest.avi
Format : AVI
Format/Info : Audio Video Interleave
File size : 1.41 GiB
Duration : 1h 26mn
Overall bit rate : 2 330 Kbps
Writing application : VirtualDubMod 1.5.4.1 (build 2178/release)
Writing library : VirtualDubMod build 2178/release
Video
ID : 0
Format : MPEG-4 Visual
Format profile : Advanced Simple@L5
Format settings, BVOP : 2
Format settings, QPel : No
Format settings, GMC : No warppoints
Format settings, Matrix : Default (H.263)
Codec ID : XVID
Codec ID/Hint : XviD
Duration : 1h 26mn
Bit rate : 1 931 Kbps
Width : 720 pixels
Height : 384 pixels
Display aspect ratio : 1.85:1
Frame rate : 25.000 fps
Color space : YUV
Chroma subsampling : 4:2:0
Bit depth : 8 bits
Scan type : Progressive
Compression mode : Lossy
Bits/(Pixel*Frame) : 0.279
Stream size : 1.17 GiB (83%)
Writing library : XviD 64
Audio #1
ID : 1
Format : AC-3
Format/Info : Audio Coding 3
Mode extension : CM (complete main)
Format settings, Endianness : Big
Codec ID : 2000
Duration : 1h 26mn
Bit rate mode : Constant
Bit rate : 192 Kbps
Channel(s) : 2 channels
Channel positions : Front: L R
Sampling rate : 48.0 KHz
Bit depth : 16 bits
Compression mode : Lossy
Stream size : 119 MiB (8%)
Alignment : Split accross interleaves
Interleave, duration : 40 ms (1.00 video frame)
Interleave, preload duration : 500 ms
Audio #2
ID : 2
Format : AC-3
Format/Info : Audio Coding 3
Mode extension : CM (complete main)
Format settings, Endianness : Big
Codec ID : 2000
Duration : 1h 26mn
Bit rate mode : Constant
Bit rate : 192 Kbps
Channel(s) : 2 channels
Channel positions : Front: L R
Sampling rate : 48.0 KHz
Bit depth : 16 bits
Compression mode : Lossy
Stream size : 119 MiB (8%)
Alignment : Split accross interleaves
Interleave, duration : 40 ms (1.00 video frame)
Interleave, preload duration : 500 ms

Скриншот c названием фильма

Скриншоты

Скачать

Скачать торрент!

Как скачивать? · Что такое торрент? · Рейтинг и ограничения

Сайт не распространяет и не хранит электронные версии произведений, а лишь предоставляет доступ к создаваемому пользователями каталогу ссылок на торрент-файлы, которые содержат только списки хеш-сумм

[Профиль] [ЛС]
Показать сообщения:    
Ответить на тему

Текущее время: Сегодня 13:52

Часовой пояс: GMT + 4



Вы не можете начинать темы
Вы не можете отвечать на сообщения
Вы не можете редактировать свои сообщения
Вы не можете удалять свои сообщения
Вы не можете голосовать в опросах
Вы не можете прикреплять файлы к сообщениям
Вы не можете скачивать файлы