Русалочка / The Little Mermaid (Рон Клементс / Ron Clements, Джон Маскер / John Musker) [1989, мелодрама, мюзикл, семейный, мультфильм, BDRip] Dub + Original + subs (Rus: Full, Forced, Songs; Eng: Full, Forced, SDH)

Ответить на тему
 
Автор Сообщение

user ®

Стаж: 12 лет

Сообщений: 15145

Пост Пост: #1 от 27-Авг-2013 08:10

[Цитировать]

Русалочка / The Little Mermaid- Год выпуска: 1989
Выпущено: США
Жанр: мелодрама, мюзикл, семейный, мультфильм
Продолжительность: 01:22:48
Перевод: Профессиональный (полное дублирование)
+ Оригинальная звуковая дорожка (отдельно)
Субтитры: Русские (полные, форсированные, на песни), английские (полные, форсированные, SDH) (внешние srt*) (спасибо yaroslaigor)-Режиссер: Рон Клементс / Ron Clements, Джон Маскер / John Musker
Роли озвучивали: Джоди Бенсон, Пэт Кэрролл, Рене Обержонуа, Кристофер Дэниэл Барнс, Пэдди Эдвардс, Бадди Хэкетт, Джейсон Марин, Кеннет Марс, Эди МакКлёрг, Уилл Райан
О фильме: Таинственные глубины моря хранят немало тайн, а обитатели океана могут рассказать множество удивительных историй. И самой невероятной из них была и остаётся история русалочки Ариэль. Дочь могущественного царя подводного мира Тритона, она однажды влюбляется в прекрасного и мужественного принца. Но разве они могут быть вместе — земной человек и морская дева? Однако настоящие чувства преодолевают любые преграды. Ради своей любви Ариэль готова пойти на всё. Даже если для обретения своего счастья ей навсегда придётся покинуть родной океан и навеки стать земной девушкой…
Релиз:
Автор: kingsize87
Качество: BDRip (источник: kA / Blu-ray / 1080p)
Формат: AVI
Видео: 720x400 (1.80:1), 23,976 fps, XviD build 65 ~2053 kbps avg, 0.30 bit/pixel
Аудио #1: 48 kHz, AC3 Dolby Digital, 3/2 (L,C,R,l,r) + LFE ch, ~448.00 kbps avg
Аудио #2: 48 kHz, AC3 Dolby Digital, 3/2 (L,C,R,l,r) + LFE ch, ~448.00 kbps avg eng (отдельно)
Размер: 1487.14 Mb (1/3 DVD-R)- -

Mi


Формат : AVI
Формат/Информация : Audio Video Interleave
Размер файла : 1,45 Гбайт
Продолжительность : 1 ч. 22 м.
Общий поток : 2511 Кбит/сек
Название фильма : Русалочка / The Little Mermaid (1989) BDRip
Режиссёр : kingsize87
Программа кодирования : VirtualDubMod 1.5.10.2 (build 2540/release)
Правообладатель : HQCLUB
Примечание : 26.08.2013
Видео
Идентификатор : 0
Формат : MPEG-4 Visual
Профиль формата : Advanced Simple@L5
Параметр BVOP формата : 1
Параметр QPel формата : Нет
Параметр GMC формата : Без точки перехода
Параметр матрицы формата : Выборочная
Идентификатор кодека : XVID
Идентификатор кодека/Подсказка : XviD
Продолжительность : 1 ч. 22 м.
Битрейт : 2053 Кбит/сек
Ширина : 720 пикселей
Высота : 400 пикселей
Соотношение сторон : 16:9
Частота кадров : 23,976 кадра/сек
Цветовое пространство : YUV
Субдискретизация насыщенности : 4:2:0
Битовая глубина : 8 бит
Тип развёртки : Прогрессивная
Метод сжатия : С потерями
Бит/(Пиксели*Кадры) : 0.297
Размер потока : 1,19 Гбайт (82%)
Библиотека кодирования : XviD 65
Аудио
Идентификатор : 1
Формат : AC-3
Формат/Информация : Audio Coding 3
Расширение режима : CM (complete main)
Параметр Endianness формата : Big
Идентификатор кодека : 2000
Продолжительность : 1 ч. 22 м.
Вид битрейта : Постоянный
Битрейт : 448 Кбит/сек
Каналы : 6 каналов
Расположение каналов : Front: L C R, Side: L R, LFE
Частота : 48,0 КГц
Битовая глубина : 16 бит
Метод сжатия : С потерями
Размер потока : 265 Мбайт (18%)
Выравнивание : Разделение по промежуткам
Продолжительность промежутка : 42 мс. (1,00 видеокадр)
Время предзагрузки промежутка : 500 мс.
-
Скачать

Скачать торрент! Русалочка / The Little Mermaid (Рон Клементс / Ron Clements, Джон Маскер / John Musker) [1989, мелодрама, мюзикл, семейный, мультфильм, BDRip] Dub + Original + subs (Rus: Full, Forced, Songs; Eng: Full, Forced, SDH)

Как скачивать? · Что такое торрент? · Рейтинг и ограничения

Сайт не распространяет и не хранит электронные версии произведений, а лишь предоставляет доступ к создаваемому пользователями каталогу ссылок на торрент-файлы, которые содержат только списки хеш-сумм

[Профиль] [ЛС]
Показать сообщения:    
Ответить на тему

Текущее время: Сегодня 12:56

Часовой пояс: GMT + 4



Вы не можете начинать темы
Вы не можете отвечать на сообщения
Вы не можете редактировать свои сообщения
Вы не можете удалять свои сообщения
Вы не можете голосовать в опросах
Вы не можете прикреплять файлы к сообщениям
Вы не можете скачивать файлы