Лето напрокат / Summer Rental (Карл Райнер / Carl Reiner) [1985, США, мелодрама, комедия, приключения, HDTV 1080i] MVO (ТНТ) + AVO (Андрей Гаврилов) + Sub Eng + Original Eng

Ответить на тему
 
Автор Сообщение

user ®

Стаж: 7 лет 7 месяцев

Сообщений: 20008

Пост Пост: #1 от 26-Авг-2013 22:45

[Цитировать]

Лето напрокат / Summer Rental
Страна: США
Жанр: мелодрама, комедия, приключения
Год выпуска: 1985
Продолжительность: 01:26:51
Перевод 1: Профессиональный (многоголосый закадровый) ТНТ
Перевод 2: Авторский (одноголосый закадровый) Андрей Гаврилов
Cубтитры: английские [SDH]
Оригинальная аудиодорожка: английский
-
Режиссер: Карл Райнер / Carl Reiner
В ролях: Карен Остин, Джон Кэнди, Керри Грин, Джозеф Лоуренс, Обри Джен, Ричард Кренна, Рип Торн, Джон Ларрокетт, Ричард Херд, Сантос Моралес
-
Описание: Авиадиспетчер Джек Честер летом едет с женой и детьми на море поправить расшалившиеся нервишки. Там его ждут все «прелести» курорта. на пляже яблоку негде упасть, снятый дом в ужасном состоянии, старшую дочь сразу же начинает обольщать атлетически сложенный спасатель, наш толстяк обгорает на солнце; чтобы попасть в ресторан, надо отстоять огромную очередь.
Отпуск был бы совершенно испорчен, если бы Джек не подружился со старым моряком, превратившим свою яхту в ресторан. Вместе они бросают вызов местному снобу, чемпиону ежегодной регаты, выселяющему Честера с семьей из снятого летнего домика в отместку за предыдущие столкновения. Они приводят плавучий ресторан в порядок и готовят его к регате…

Тип релиза: HDTV 1080i
Контейнер: MKV
Видео: MPEG-2 / NTSC 16:9 / 1920x1080 (1,85:1) / 17041 kbps / 29,970 fps / 0.268 bit/pixel / Main@High
Аудио 1: Russian / AC3 / 48 kHz / 2 Ch / 192 kbps / 16 bit / ТНТ
Аудио 2: Russian / AC3 / 48 kHz / 2 Ch / 192 kbps / 16 bit / Андрей Гаврилов
Аудио 3: English / AC3 / 48 kHz / 5.1 Ch / 384 kbps / 16 bit / Original
Формат субтитров: softsub (SRT)
Навигация по главам: есть

Сэмпл

Сэмпл: http://www.sendspace.com/file/nttdh4

MediaInfo

Общее
Уникальный идентификатор : 185684837291618815203862726713534077476 (0x8BB1994D4E928721A809A9D3201C5A24)
Полное имя : W:\HDTV\Summer Rental.1985.HDTV.1080i.mkv
Формат : Matroska
Версия формата : Version 4 / Version 2
Размер файла : 10,8 Гбайт
Продолжительность : 1 ч. 26 м.
Режим общего битрейта : Переменный
Общий поток : 17,8 Мбит/сек
Дата кодирования : UTC 2013-08-25 04:53:03
Программа кодирования : mkvmerge v6.3.0 ('You can't stop me!') built on Jun 28 2013 20:09:41
Библиотека кодирования : libebml v1.3.0 + libmatroska v1.4.0
Видео
Идентификатор : 1
Формат : MPEG Video
Версия формата : Version 2
Профиль формата : Main@High
Параметр BVOP формата : Нет
Параметр матрицы формата : Выборочная
Идентификатор кодека : V_MPEG2
Идентификатор кодека/Информация : MPEG 1 or 2 Video
Продолжительность : 1 ч. 26 м.
Вид битрейта : Переменный
Битрейт : 16,6 Мбит/сек
Максимальный битрейт : 65,0 Мбит/сек
Ширина : 1920 пикселей
Высота : 1080 пикселей
Соотношение сторон : 16:9
Режим частоты кадров : Постоянный
Частота кадров : 29,970 кадров/сек
Цветовое пространство : YUV
Субдискретизация насыщенности : 4:2:0
Битовая глубина : 8 бит
Тип развёртки : Чересстрочная
Порядок развёртки : Верхнее поле первое
Метод сжатия : С потерями
Бит/(Пиксели*Кадры) : 0.268
Временной код первого кадра : 00:00:00;00
Оригинал временного кода : Group of pictures header
Размер потока : 10,1 Гбайт (94%)
Язык : English
Default : Да
Forced : Нет
Аудио #1
Идентификатор : 2
Формат : AC-3
Формат/Информация : Audio Coding 3
Расширение режима : CM (complete main)
Параметр Endianness формата : Big
Идентификатор кодека : A_AC3
Продолжительность : 1 ч. 26 м.
Вид битрейта : Постоянный
Битрейт : 192 Кбит/сек
Каналы : 2 канала
Расположение каналов : Front: L R
Частота : 48,0 КГц
Битовая глубина : 16 бит
Метод сжатия : С потерями
Размер потока : 119 Мбайт (1%)
Заголовок : MVO / ТНТ
Язык : Russian
Default : Да
Forced : Нет
Аудио #2
Идентификатор : 3
Формат : AC-3
Формат/Информация : Audio Coding 3
Профиль формата : Dolby Digital
Расширение режима : CM (complete main)
Параметр Endianness формата : Big
Идентификатор кодека : A_AC3
Продолжительность : 1 ч. 26 м.
Вид битрейта : Постоянный
Битрейт : 192 Кбит/сек
Каналы : 2 канала
Расположение каналов : Front: L R
Частота : 48,0 КГц
Битовая глубина : 16 бит
Метод сжатия : С потерями
Размер потока : 119 Мбайт (1%)
Заголовок : AVO / Андрей Гаврилов
Язык : Russian
Default : Нет
Forced : Нет
Аудио #3
Идентификатор : 4
Формат : AC-3
Формат/Информация : Audio Coding 3
Расширение режима : CM (complete main)
Параметр Endianness формата : Big
Идентификатор кодека : A_AC3
Продолжительность : 1 ч. 26 м.
Вид битрейта : Постоянный
Битрейт : 384 Кбит/сек
Каналы : 6 каналов
Расположение каналов : Front: L C R, Side: L R, LFE
Частота : 48,0 КГц
Битовая глубина : 16 бит
Метод сжатия : С потерями
Размер потока : 239 Мбайт (2%)
Заголовок : Original
Язык : English
Default : Нет
Forced : Нет
Текст
Идентификатор : 5
Формат : UTF-8
Идентификатор кодека : S_TEXT/UTF8
Идентификатор кодека/Информация : UTF-8 Plain Text
Заголовок : Original [SDH]
Язык : English
Default : Нет
Forced : Нет
Меню
00:00:00.000 : en:Burn Out
00:07:13.334 : en:Citrus Cove, Florida
00:18:58.168 : en:Wrong House
00:23:26.669 : en:Fun In the Sun
00:34:38.170 : en:Cast Away
00:45:23.037 : en:Advice From Skully
00:52:04.906 : en:Sailor Jack
00:55:57.274 : en:New Landlord
01:03:06.907 : en:The Barnacle
01:12:45.908 : en:Regatta
01:19:44.408 : en:Second Wind
01:23:34.243 : en:End Credits
01:26:51.810 : en:Chapter 13

Скриншоты

Скачать

Скачать торрент!

Как скачивать? · Что такое торрент? · Рейтинг и ограничения

Сайт не распространяет и не хранит электронные версии произведений, а лишь предоставляет доступ к создаваемому пользователями каталогу ссылок на торрент-файлы, которые содержат только списки хеш-сумм

[Профиль] [ЛС]
Показать сообщения:    
Ответить на тему

Текущее время: Сегодня 07:01

Часовой пояс: GMT + 4



Вы не можете начинать темы
Вы не можете отвечать на сообщения
Вы не можете редактировать свои сообщения
Вы не можете удалять свои сообщения
Вы не можете голосовать в опросах
Вы не можете прикреплять файлы к сообщениям
Вы не можете скачивать файлы