Преображение / The Makeover (Джон Грэй / John Gray) [2013, США, Романтическая комедия, HDTVRip] DVO (студия Elrom)

Ответить на тему
 
Автор Сообщение

user ®

Стаж: 7 лет 7 месяцев

Сообщений: 20008

Пост Пост: #1 от 26-Авг-2013 22:45

[Цитировать]

Преображение / The Makeover
Страна: США
Жанр: Романтическая комедия
Год выпуска: 2013
Продолжительность: 01:36:14
Перевод: Профессиональный (двухголосый закадровый) студия Elrom
Cубтитры: нет
Оригинальная аудиодорожка: нет
Режиссер: Джон Грэй / John Gray
В ролях: Джулия Стайлз /Julia Stiles/, Дэвид Уолтон /David Walton/, Камрин Менхейм /Camryn Manheim/, Фрэнсис Фишер /Frances Fisher/, Лонни Фармер /Lonnie Farmer/, Альберт М. Чен /Albert M. Chan/, Моурин Кейллер /Maureen Keiller/, Нада Деспотович /Nada Despotovich/, Билл Мутос /Bill Mootos/
Описание: Ханна Хиггинс умный консультант в области образования. Она выставляет свою кандидатуру в конгресс, чтобы продвинуть реформу образования. Но проблема в том, что Ханна ужасна как кандидат — ее холодная, элитарная персона отталкивает бостонских избирателей.
Ханна Хиггинс и ее деловой партнер Коллин Пикеринг не собираются так легко сдаваться. Они вербуют кандидата, который определенно является человеком из народа…
Доп. информация:
IMDB
Производство: Hallmark Hall of Fame Productions, McGee Street Productions (США)
Сэмпл: http://multi-up.com/897368
Качество видео: HDTVRip
Формат видео: AVI
Видео: Xvid 688x384 23.98fps 980kbps
Аудио: MPEG Audio Layer 3 44100Hz stereo 96kbps

MediaInfo

General
Complete name : Q:\The.Makeover.2013.720p.HDTV.x264-2HD [PublicHD]\Preobrazhenie.2013.HDTVrip.XviD.Rus_25KADR.avi
Format : AVI
Format/Info : Audio Video Interleave
File size : 747 MiB
Duration : 1h 36mn
Overall bit rate : 1 085 Kbps
Movie name : Preobrazhenie.2013
Original source form/Distributed : the.makeover.2013.720p.hdtv.x264-2hd.mkv
Genre : Romantic Comedy
Copyright : 25KADR
Video
ID : 0
Format : MPEG-4 Visual
Format profile : Advanced Simple@L5
Format settings, BVOP : Yes
Format settings, QPel : No
Format settings, GMC : No warppoints
Format settings, Matrix : Default (MPEG)
Codec ID : XVID
Codec ID/Hint : XviD
Duration : 1h 36mn
Bit rate : 980 Kbps
Width : 688 pixels
Height : 384 pixels
Display aspect ratio : 16:9
Frame rate : 23.976 fps
Color space : YUV
Chroma subsampling : 4:2:0
Bit depth : 8 bits
Scan type : Progressive
Bits/(Pixel*Frame) : 0.155
Stream size : 675 MiB (90%)
Writing library : XviD 64
Audio
ID : 1
Format : MPEG Audio
Format version : Version 1
Format profile : Layer 3
Mode : Joint stereo
Mode extension : Intensity Stereo + MS Stereo
Codec ID : 55
Codec ID/Hint : MP3
Duration : 1h 36mn
Bit rate mode : Constant
Bit rate : 96.0 Kbps
Channel(s) : 2 channels
Sampling rate : 44.1 KHz
Stream size : 66.1 MiB (9%)
Alignment : Split accross interleaves
Interleave, duration : 42 ms (1.00 video frame)
Interleave, preload duration : 500 ms
Language : Russian

Скриншоты



Попадается и такое (лого, лого, лого):
Скачать

Скачать торрент!

Как скачивать? · Что такое торрент? · Рейтинг и ограничения

Сайт не распространяет и не хранит электронные версии произведений, а лишь предоставляет доступ к создаваемому пользователями каталогу ссылок на торрент-файлы, которые содержат только списки хеш-сумм

[Профиль] [ЛС]
Показать сообщения:    
Ответить на тему

Текущее время: Сегодня 12:54

Часовой пояс: GMT + 4



Вы не можете начинать темы
Вы не можете отвечать на сообщения
Вы не можете редактировать свои сообщения
Вы не можете удалять свои сообщения
Вы не можете голосовать в опросах
Вы не можете прикреплять файлы к сообщениям
Вы не можете скачивать файлы