Давний друг / Давнишний компаньон / Longtime Companion (Норман Рене / Norman Rene) [1989, США, драма, мелодрама, HDTV 1080i] DVO (НТВ+) + VO + Sub Eng + Original Eng

Ответить на тему
 
Автор Сообщение

user ®

Стаж: 7 лет 7 месяцев

Сообщений: 20008

Пост Пост: #1 от 26-Авг-2013 13:20

[Цитировать]

Давний друг / Давнишний компаньон / Longtime Companion
Страна: США
Студия: American Playhouse, Companion Productions, Samuel Goldwyn Company
Жанр: драма, мелодрама
Год выпуска: 1989
Продолжительность: 01:35:21
Перевод 1: Профессиональный (двухголосый закадровый) НТВ+
Перевод 2: Одноголосый закадровый
Cубтитры: английские
Оригинальная аудиодорожка: английский
Режиссер: Норман Рене / Norman Rene
В ролях: Кэмпбелл Скотт, Патрик Кэссиди, Джон Доссетт, Мэри-Луиз Паркер, Стефен Кэффри, Таня Березин, Уэлкер Уайт, Michael Piontek, Joyce Reehling, Брюс Дэвисон
Описание: Фильм рассказывает о появившейся в 1981 болезни, которую с самого начала считали болезнью сугубо гомосексуалистов, речь идёт о СПИДе. Люди, которых зацепила эта неизлечимая болезнь, живут в Нью-Йорке, но собираются вместе на Огненном острове (известном месте встреч гомосексуалистов Нью-Йорка). Фильм повествует о судьбах этой компании и их жизни с 1981 по 1989 год. Жизнь геев, молодых и не очень людей, сходящихся и расходящихся друг с другом. Любовь и влечение, размолвки и разочарования, горести, СПИД и трагедия, и снова жизнь, и ожившие воспоминания как ожившие старые друзья. Добрый и лиричный фильм, несмотря на тяжесть утрат и горечь потерь. Считается, что «Давний друг» - это первый фильм, рассказавший о СПИДе.
Награды: Награда Sundance FF 1990 за лучшую драму + номинация на Гран-при жюри. Награды: Independent Spirit Awards 1991, "Золотой глобус" 1991; National Society of Film Critics (USA) 1991, New York Film Critics Circle 1991 актёру второго плана (Bruce Davison). Награда GLAAD Media Award 1991 за лучший фильм. Номинация на "Оскар" 1990 (лучший актёр второго плана - Bruce Davison). Номинация на "Artios" by Casting Society of America 1990 за подбор актёров. Номинация на приз кинокритиков Deauville FF 1990. Номинация Political Film Society (USA) 1991.

Доп. информация: За дополнительные дороги спасибо ralf124c41+
Тип релиза: HDTV 1080i
Контейнер: MKV
Видео: AVC 1920x1080 (16:9)) 25.0fps Bit rate 6082Kbps
Аудио 1: MP2 48.0 KHz 2ch. 192kbps rus
Аудио 2: AC3 48.0 KHz 2ch. 192kbps rus
Аудио 3: AC3 48.0 KHz 2ch. 192kbps eng

MediaInfo

General
Complete name : E:\torrent\Davniy Drug_HDTV 1080i.mkv
Format : Matroska
File size : 4.53 GiB
Duration : 1h 35mn
Overall bit rate : 6 794 Kbps
Encoded date : UTC 2013-08-25 09:44:45
Writing application : mkvmerge v5.7.0 ('The Whirlwind') built on Jul 8 2012 20:08:51
Writing library : libebml v1.2.3 + libmatroska v1.3.0
Video
ID : 1
Format : AVC
Format/Info : Advanced Video Codec
Format profile : High@L4.0
Format settings, CABAC : Yes
Format settings, ReFrames : 3 frames
Muxing mode : Container profile=Unknown@4.0
Codec ID : V_MPEG4/ISO/AVC
Duration : 1h 35mn
Bit rate : 6 082 Kbps
Width : 1 920 pixels
Height : 1 080 pixels
Display aspect ratio : 16:9
Frame rate : 50.000 fps
Original frame rate : 25.000 fps
Standard : Component
Color space : YUV
Chroma subsampling : 4:2:0
Bit depth : 8 bits
Scan type : Interlaced
Scan order : Top Field First
Bits/(Pixel*Frame) : 0.059
Stream size : 4.05 GiB (90%)
Title : Davniy Drug_HDTV 1080i
Color primaries : BT.709-5, BT.1361, IEC 61966-2-4, SMPTE RP177
Transfer characteristics : BT.709-5, BT.1361
Matrix coefficients : BT.709-5, BT.1361, IEC 61966-2-4 709, SMPTE RP177
Audio #1
ID : 2
Format : MPEG Audio
Format version : Version 1
Format profile : Layer 2
Codec ID : A_MPEG/L2
Codec ID/Hint : MP2
Duration : 1h 35mn
Bit rate mode : Constant
Bit rate : 192 Kbps
Channel(s) : 2 channels
Sampling rate : 48.0 KHz
Stream size : 131 MiB (3%)
Title : Davniy Drug_MP2_DVO_NTV+
Language : Russian
Audio #2
ID : 3
Format : AC-3
Format/Info : Audio Coding 3
Mode extension : CM (complete main)
Codec ID : A_AC3
Duration : 1h 35mn
Bit rate mode : Constant
Bit rate : 192 Kbps
Channel(s) : 2 channels
Channel positions : Front: L R
Sampling rate : 48.0 KHz
Bit depth : 16 bits
Stream size : 131 MiB (3%)
Title : Davniy Drug_AC3_VO
Language : Russian
Audio #3
ID : 4
Format : AC-3
Format/Info : Audio Coding 3
Mode extension : CM (complete main)
Codec ID : A_AC3
Duration : 1h 35mn
Bit rate mode : Constant
Bit rate : 192 Kbps
Channel(s) : 2 channels
Channel positions : Front: L R
Sampling rate : 48.0 KHz
Bit depth : 16 bits
Stream size : 131 MiB (3%)
Title : Davniy Drug_original eng
Text
ID : 5
Format : UTF-8
Codec ID : S_TEXT/UTF8
Codec ID/Info : UTF-8 Plain Text
Title : Davniy Drug_sub_eng

Скриншот с названием фильма

Скриншоты

Сравнение с DVD


Скачать

Скачать торрент!

Как скачивать? · Что такое торрент? · Рейтинг и ограничения

Сайт не распространяет и не хранит электронные версии произведений, а лишь предоставляет доступ к создаваемому пользователями каталогу ссылок на торрент-файлы, которые содержат только списки хеш-сумм

[Профиль] [ЛС]
Показать сообщения:    
Ответить на тему

Текущее время: Сегодня 08:06

Часовой пояс: GMT + 4



Вы не можете начинать темы
Вы не можете отвечать на сообщения
Вы не можете редактировать свои сообщения
Вы не можете удалять свои сообщения
Вы не можете голосовать в опросах
Вы не можете прикреплять файлы к сообщениям
Вы не можете скачивать файлы