Добро и зло / Teesri Aankh (Субодх Мукхерджи / Subodh Mukherji) [1982, Индия, Драма, триллер, боевик, DVDRip] DVO

Ответить на тему
 
Автор Сообщение

user ®

Стаж: 12 лет

Сообщений: 15124

Пост Пост: #1 от 26-Авг-2013 10:10

[Цитировать]

Добро и зло / Teesri Aankh
Страна: Индия
Жанр: Драма, триллер, боевик
Год выпуска: 1982
Продолжительность: 02:30:07
Перевод: Профессиональный (двухголосый закадровый)
Cубтитры: нет
Режиссер: Субодх Мукхерджи / Subodh Mukherji
В ролях: Хелен, Амджад Кхан, Урмила Бхатт, Зинат Аман, Дхармендра, Хема Малини, Сарика, Ниту Сингх, Мехмуд, Нирупа Рой, Дживан, Ом Шивпури, Ранджит, Шатругхан Синха, Прадип Кумар, Сима Део, Ракеш Рошан, Сатиендра Капур, Кадер Кхан, И.С. Джохар
Описание: Бездетная Малти замужем за Кайлашем. Однажды Кайлаш возвращается домой с новорожденным ребенком в руках и просит Малти разрешения оставить его. Малти стала воспитывать мальчика как собственного сына, а вскоре и сама родила двух близнецов. Однако обстоятельства сложились так, что Кайлаш погиб, а один из сыновей Малти исчез...
Сэмпл: http://multi-up.com/897394
Качество видео: DVDRip
Формат видео: AVI
Видео: XviD build 50, 640x480 (1.33:1), 23.976 fps, 1254 kbps avg
Аудио: MPEG Layer 3, 48 kHz, 2/0 (L,R) ch, 128.00 kbps avg

MediaInfo

General
Complete name : D:\Dobro.i.zlo.1982.XviD.DVDRip-Dego.avi
Format : AVI
Format/Info : Audio Video Interleave
File size : 1.46 GiB
Duration : 2h 30mn
Overall bit rate : 1 392 Kbps
Writing application : VirtualDubMod 1.5.10.2 (build 2540/release)
Writing library : VirtualDubMod build 2540/release
Video
ID : 0
Format : MPEG-4 Visual
Format profile : AdvancedSimple@L5
Format settings, BVOP : Yes
Format settings, QPel : No
Format settings, GMC : No warppoints
Format settings, Matrix : Default (MPEG)
Codec ID : XVID
Codec ID/Hint : XviD
Duration : 2h 30mn
Bit rate : 1 255 Kbps
Width : 640 pixels
Height : 480 pixels
Display aspect ratio : 4/3
Frame rate : 23.976 fps
Resolution : 24 bits
Colorimetry : 4:2:0
Scan type : Progressive
Bits/(Pixel*Frame) : 0.170
Stream size : 1.32 GiB (90%)
Writing library : XviD 1.2.1 (UTC 2008-12-04)
Audio
ID : 1
Format : MPEG Audio
Format version : Version 1
Format profile : Layer 3
Codec ID : 55
Codec ID/Hint : MP3
Duration : 2h 30mn
Bit rate mode : Constant
Bit rate : 128 Kbps
Channel(s) : 2 channels
Sampling rate : 48.0 KHz
Resolution : 16 bits
Stream size : 137 MiB (9%)
Alignment : Aligned on interleaves
Interleave, duration : 42 ms (1.00 video frame)
Interleave, preload duration : 504 ms
Writing library : LAME3.98r
Encoding settings : -m s -V 4 -q 2 -lowpass 17 -b 128

Скриншоты

Скачать

Скачать торрент! Добро и зло / Teesri Aankh (Субодх Мукхерджи / Subodh Mukherji) [1982, Индия, Драма, триллер, боевик, DVDRip] DVO

Как скачивать? · Что такое торрент? · Рейтинг и ограничения

Сайт не распространяет и не хранит электронные версии произведений, а лишь предоставляет доступ к создаваемому пользователями каталогу ссылок на торрент-файлы, которые содержат только списки хеш-сумм

[Профиль] [ЛС]

szaviola

Пол:

Стаж: 6 лет 9 месяцев

Сообщений: 8

Пост Пост: #2 от 24-Апр-2015 02:43 (спустя 1 год 7 месяцев)

[Цитировать]

(((СПАСИБО ФИЛЬМ СУПЕР!!!)))
[Профиль] [ЛС]
Показать сообщения:    
Ответить на тему

Текущее время: Сегодня 22:07

Часовой пояс: GMT + 4



Вы не можете начинать темы
Вы не можете отвечать на сообщения
Вы не можете редактировать свои сообщения
Вы не можете удалять свои сообщения
Вы не можете голосовать в опросах
Вы не можете прикреплять файлы к сообщениям
Вы не можете скачивать файлы