Солнечный дракон / Sun Dragon / A Hard Way to Die / Zhu zai xie lei (Хуа Шань / Hua Shan) [1979, Гонконг, боевые искусства, VHSRip] AVO (Александр Кашкин-Первомайский)

Ответить на тему
 
Автор Сообщение

user ®

Стаж: 13 лет

Сообщений: 15071

Пост Пост: #1 от 26-Авг-2013 03:55

[Цитировать]

Солнечный дракон / Sun Dragon / A Hard Way to Die / Zhu zai xie lei
Страна: Гонконг
Жанр: боевые искусства
Год выпуска: 1979
Продолжительность: 01:26:35
Перевод: Авторский (одноголосый закадровый) Александр Кашкин-Первомайский
Cубтитры: нет
Режиссер: Хуа Шань / Hua Shan
В ролях: Билли Чонг, Карл Скотт, Луис Неглиа, Ма Цзундэ, Джозеф Дженнингс, Линь Кэмин, Цзинь Бяо, Хоу Чжаошэн
Описание: Сюжет вращается вокруг бандитов, мести, и соперничества. Этот фильм приключения заполнен боевыми сценами боёв, Чёрная пантера (Карл Скотт), ищет мести и бандитов, которые убили его семью. Он объединяется с экспертом по боевым искусствам (Билли Чонг), который помогает, чтобы отомстить за убийство.
Благодарность: За синхронизацию озвучки благодарность выражается Виктору Береговых (Jet).
Сэмпл: http://multi-up.com/897284
Качество видео: VHSRip
Формат видео: AVI
Видео: 720x400 (1.80:1), 25 fps, XviD build 50 ~2119 kbps avg, 0.29 bit/pixel
Аудио: 48 kHz, MPEG Layer 3, 2 ch, ~128.00 kbps avg

MediaInfo

Format : AVI
Format/Info : Audio Video Interleave
File size : 1,37 Гбайт
Duration : 1 ч. 26 м.
Overall bit rate : 2258 Кбит/сек
Writing application : VirtualDubMod 1.5.10.3 | www.virtualdub-fr.org || (build 2550/release)
Writing library : VirtualDubMod build 2550/release
Видео
ID : 0
Format : MPEG-4 Visual
Format profile : Advanced Simple@L5
Format settings, BVOP : 2
Format settings, QPel : Нет
Format settings, GMC : Без точки перехода
Format settings, Matrix : Default (MPEG)
Codec ID : XVID
Codec ID/Hint : XviD
Duration : 1 ч. 26 м.
Bit rate : 2120 Кбит/сек
Width : 720 пикселей
Height : 400 пикселей
Display aspect ratio : 16:9
Frame rate : 25,000 кадров/сек
Color space : YUV
Chroma subsampling : 4:2:0
Bit depth : 8 бит
Scan type : Прогрессивная
Compression mode : С потерями
Bits/(Pixel*Frame) : 0.294
Stream size : 1,28 Гбайт (94%)
Writing library : XviD 1.2.1 (UTC 2008-12-04)
Аудио
ID : 1
Format : MPEG Audio
Format version : Version 1
Format profile : Layer 3
Codec ID : 55
Codec ID/Hint : MP3
Duration : 1 ч. 26 м.
Bit rate mode : Постоянный
Bit rate : 128 Кбит/сек
Channel(s) : 2 канала
Sampling rate : 48,0 КГц
Compression mode : С потерями
Stream size : 79,3 Мбайт (6%)
Alignment : Соединение по промежуткам
Interleave, duration : 40 мс. (1,00 видеокадр)
Interleave, preload duration : 504 мс.
Writing library : LAME3.99r
Encoding settings : -m s -V 4 -q 2 -lowpass 17 -b 128

Скриншот c названием фильма

Скриншоты

Скачать

Скачать торрент! Солнечный дракон / Sun Dragon / A Hard Way to Die / Zhu zai xie lei (Хуа Шань / Hua Shan) [1979, Гонконг, боевые искусства, VHSRip] AVO (Александр Кашкин-Первомайский)

Как скачивать? · Что такое торрент? · Рейтинг и ограничения

Сайт не распространяет и не хранит электронные версии произведений, а лишь предоставляет доступ к создаваемому пользователями каталогу ссылок на торрент-файлы, которые содержат только списки хеш-сумм

[Профиль] [ЛС]
Показать сообщения:    
Ответить на тему

Текущее время: Сегодня 12:15

Часовой пояс: GMT + 4



Вы не можете начинать темы
Вы не можете отвечать на сообщения
Вы не можете редактировать свои сообщения
Вы не можете удалять свои сообщения
Вы не можете голосовать в опросах
Вы не можете прикреплять файлы к сообщениям
Вы не можете скачивать файлы