Азартная игра / Mankatha (Сурендер Редди / Surender Reddy) [2011, Индия, Мелодрама, HDRip] МVO

Ответить на тему
 
Автор Сообщение

user ®

Стаж: 12 лет

Сообщений: 15124

Пост Пост: #1 от 26-Авг-2013 03:55

[Цитировать]

Азартная игра / Mankatha
-Страна: Индия
Жанр: Триллер
Год выпуска: 2011
Продолжительность: 02:40:16-Язык: Тамили
Перевод: Профессиональный (многоголосый закадровый) - Red Media--Режиссер: Венкат Прабху / Venkat Prabhu-В ролях: Триша Кришнан, Аджит Кумар, Арджун, Ваибхав, Махат Рагхавендра, Премджи Амарен, Ашвин Какуману, Джаяпракаш, Лакшми Рай--Описание: Скандал в полицейском департаменте Мумбая: глава антикоррупционного комитета, помощник комиссара полиции, оказался замешан в подпольных ставках на крикетные матчи Индийской премьер-лиги (ИПЛ) и застрелился прямо у себя в кабинете. Для искоренения позорного явления в большом спорте был создан специальный отряд, подотчетный исключительно Президенту Индии. Помощник комиссара Притвирадж (Арджун), возглавляющий этот спецотряд, действует мощно и быстро: за решетку попадают все новые участники спортивной аферы, конфискованы миллионы. Это беспокоит Арумугу Четтияра, который под прикрытием своего кинотеатра организует подпольные ставки. В день матча ИПЛ он ожидает грузовик с пятью миллиардами, которые будут распределены между влиятельными букмекерами. Один из парней Четтияра, прознав об этом, задумывает с тремя своими приятелями ограбить хозяина, обеспечив себе тем самым безбедную старость. Парни готовятся к делу, но они еще не знают, что на эти пять миллиардов также нацелился Винаяк Махадэван (Аджит Кумар) временно отстраненный от службы офицер полиции, возлюбленный дочери Четтияра Санджаны (Триша Кришнан). Зато Винаяк узнает о планах четырех подельников и решает вступить с ними в сговор. Кто сорвет джек-пот в этой азартной игре, а для кого все окончится надписью «Game over», вы узнаете, посмотрев этот динамичный и остросюжетный триллер.-- Кинопоиск | Трейлер | Сэмпл--Качество видео: HDRip (исх. BDRip 720p)
Формат видео: AVI-Видео: XviD, 672х288, 23.976 fps, 1175 Kbps
Аудио: MP3, 44.1 KHz, 2ch, 128 Kbps--Сэмпл / Sample--Риппер, синхронизация звука: soso4eg-- -
-

Скриншоты с названием:


-

Скриншоты:


-

MediaInfo:

Общее
Полное имя : C:\INDIYA\[Релизы]\Azartnaya.Igra.2011.HDRip.XviD.soso4eg.avi
Формат : AVI
Формат/Информация : Audio Video Interleave
Размер файла : 1,47 Гбайт
Продолжительность : 2 ч. 40 м.
Общий поток : 1312 Кбит/сек
Название фильма : Azartnaya.Igra.2011.HDRip.XviD.soso4eg
Режиссёр : soso4eg
Программа кодирования : VirtualDubMod 1.5.10.3 | www.virtualdub-fr.org || (build 2550/release)
Правообладатель : ***
Видео
Идентификатор : 0
Формат : MPEG-4 Visual
Профиль формата : Advanced Simple@L5
Параметр BVOP формата : 2
Параметр QPel формата : Нет
Параметр GMC формата : Без точки перехода
Параметр матрицы формата : Default (MPEG)
Идентификатор кодека : XVID
Идентификатор кодека/Подсказка : XviD
Продолжительность : 2 ч. 40 м.
Битрейт : 1175 Кбит/сек
Ширина : 672 пикселя
Высота : 288 пикселей
Соотношение сторон : 2,35:1
Частота кадров : 23,976 кадра/сек
Цветовое пространство : YUV
Субдискретизация насыщенности : 4:2:0
Битовая глубина : 8 бит
Тип развёртки : Прогрессивная
Метод сжатия : С потерями
Бит/(Пиксели*Кадры) : 0.253
Размер потока : 1,32 Гбайт (90%)
Библиотека кодирования : XviD 1.2.1 (UTC 2008-12-04)
Аудио
Идентификатор : 1
Формат : MPEG Audio
Версия формата : Version 1
Профиль формата : Layer 3
Идентификатор кодека : 55
Идентификатор кодека/Подсказка : MP3
Продолжительность : 2 ч. 40 м.
Вид битрейта : Постоянный
Битрейт : 128 Кбит/сек
Каналы : 2 канала
Частота : 44,1 КГц
Метод сжатия : С потерями
Размер потока : 147 Мбайт (10%)
Выравнивание : Разделение по промежуткам
Продолжительность промежутка : 42 мс. (1,00 видеокадр)
Время предзагрузки промежутка : 500 мс.
-
Скачать

Скачать торрент! Азартная игра / Mankatha (Сурендер Редди / Surender Reddy) [2011, Индия, Мелодрама, HDRip] МVO

Как скачивать? · Что такое торрент? · Рейтинг и ограничения

Сайт не распространяет и не хранит электронные версии произведений, а лишь предоставляет доступ к создаваемому пользователями каталогу ссылок на торрент-файлы, которые содержат только списки хеш-сумм

[Профиль] [ЛС]
Показать сообщения:    
Ответить на тему

Текущее время: Сегодня 13:52

Часовой пояс: GMT + 4



Вы не можете начинать темы
Вы не можете отвечать на сообщения
Вы не можете редактировать свои сообщения
Вы не можете удалять свои сообщения
Вы не можете голосовать в опросах
Вы не можете прикреплять файлы к сообщениям
Вы не можете скачивать файлы