Повелитель лавин / Prince Avalanche (Дэвид Гордон Грин / David Gordon Green) [2013, США, драма, комедия, WEB-DL 720p] + 2x Sub (Rus, Eng) + Original Eng

Ответить на тему
 
Автор Сообщение

user ®

Стаж: 7 лет 7 месяцев

Сообщений: 20008

Пост Пост: #1 от 26-Авг-2013 03:55

[Цитировать]

Повелитель лавин / Prince Avalanche
Страна: США
Жанр: драма, комедия
Год выпуска: 2013
Продолжительность: 01:33:22
Перевод: Субтитры
Cубтитры: русские ak79, английские [SDH]
Оригинальная аудиодорожка: английский
-
Режиссер: Дэвид Гордон Грин / David Gordon Green
В ролях: Пол Радд, Эмиль Хирш, Лэнс ЛеГолт, Джойс Пэйн, Джина Гранде, Линн Шелтон, Ларри Кречмар, Энок Мун, Дэвид Л. Осборн мл., Дэнни Уолкотт
-
Описание: Элвин и Лэнс проводят лето 1988 года в пустынном, выжженном пожарами лесу, занимаясь монотонной работой, перекрашивая знаки на бесконечной проселочной дороге. Лэнсу нелегко в этой глуши прожить без вечеринок и девочек, в отличие от более серьезного Элвина, который пишет страстные письма своей девушке, старшей сестре Лэнса. На протяжении этого долгого лета они встречают только одного человека — таинственного водителя грузовика, который щедро угощает их домашней выпивкой, а затем исчезает так же внезапно, как и появился.

Тип релиза: WEB-DL 720p
Контейнер: MKV
Видео: H264 / NTSC 16:9 / 1280x530 (2,40:1) / 3887 kbps / 23,976 fps / 0.239 bit/pixel / Main@L3.1
Аудио: English / AC3 / 48 kHz / 5.1 Ch / 384 kbps / 16 bit / Original
Формат субтитров: softsub (SRT)
Навигация по главам: есть

MediaInfo

Общее
Уникальный идентификатор : 203076041035467373392172836119636303632 (0x98C705D8F581AFB984319EEB56875F10)
Полное имя : W:\WEB-DL 720p\Prince Avalanche.2013.WEB-DL.720p.mkv
Формат : Matroska
Версия формата : Version 4 / Version 2
Размер файла : 2,84 Гбайт
Продолжительность : 1 ч. 33 м.
Общий поток : 4358 Кбит/сек
Дата кодирования : UTC 2013-08-25 17:17:27
Программа кодирования : mkvmerge v6.3.0 ('You can't stop me!') built on Jun 28 2013 20:09:41
Библиотека кодирования : libebml v1.3.0 + libmatroska v1.4.0
Видео
Идентификатор : 1
Формат : AVC
Формат/Информация : Advanced Video Codec
Профиль формата : Main@L3.1
Параметр CABAC формата : Нет
Параметр ReFrames формата : 2 кадра
Идентификатор кодека : V_MPEG4/ISO/AVC
Продолжительность : 1 ч. 33 м.
Битрейт : 3887 Кбит/сек
Ширина : 1280 пикселей
Высота : 530 пикселей
Соотношение сторон : 2,40:1
Режим частоты кадров : Постоянный
Частота кадров : 23,976 кадра/сек
Цветовое пространство : YUV
Субдискретизация насыщенности : 4:2:0
Битовая глубина : 8 бит
Тип развёртки : Прогрессивная
Бит/(Пиксели*Кадры) : 0.239
Размер потока : 2,53 Гбайт (89%)
Язык : English
Default : Да
Forced : Нет
Основные цвета : BT.709
Характеристики трансфера : BT.709
Коэффициенты матрицы : BT.709
Аудио
Идентификатор : 2
Формат : AC-3
Формат/Информация : Audio Coding 3
Расширение режима : CM (complete main)
Параметр Endianness формата : Big
Идентификатор кодека : A_AC3
Продолжительность : 1 ч. 33 м.
Вид битрейта : Постоянный
Битрейт : 384 Кбит/сек
Каналы : 6 каналов
Расположение каналов : Front: L C R, Side: L R, LFE
Частота : 48,0 КГц
Битовая глубина : 16 бит
Метод сжатия : С потерями
Размер потока : 256 Мбайт (9%)
Заголовок : Original
Язык : English
Default : Да
Forced : Нет
Текст #1
Идентификатор : 3
Формат : UTF-8
Идентификатор кодека : S_TEXT/UTF8
Идентификатор кодека/Информация : UTF-8 Plain Text
Заголовок : ak79
Язык : Russian
Default : Да
Forced : Нет
Текст #2
Идентификатор : 4
Формат : UTF-8
Идентификатор кодека : S_TEXT/UTF8
Идентификатор кодека/Информация : UTF-8 Plain Text
Заголовок : Original [SDH]
Язык : English
Default : Нет
Forced : Нет
Меню
00:00:00.000 : en:1
00:05:31.000 : en:2
00:12:07.000 : en:3
00:17:14.000 : en:4
00:24:06.000 : en:5
00:29:23.000 : en:6
00:35:16.000 : en:7
00:39:26.000 : en:8
00:46:38.000 : en:9
00:49:33.000 : en:10
00:56:18.000 : en:11
01:02:58.000 : en:12
01:09:58.000 : en:13
01:16:17.000 : en:14
01:20:48.000 : en:15
01:24:46.000 : en:16

Скриншоты

Скачать

Скачать торрент!

Как скачивать? · Что такое торрент? · Рейтинг и ограничения

Сайт не распространяет и не хранит электронные версии произведений, а лишь предоставляет доступ к создаваемому пользователями каталогу ссылок на торрент-файлы, которые содержат только списки хеш-сумм

[Профиль] [ЛС]
Показать сообщения:    
Ответить на тему

Текущее время: Сегодня 06:09

Часовой пояс: GMT + 4



Вы не можете начинать темы
Вы не можете отвечать на сообщения
Вы не можете редактировать свои сообщения
Вы не можете удалять свои сообщения
Вы не можете голосовать в опросах
Вы не можете прикреплять файлы к сообщениям
Вы не можете скачивать файлы