Игра в правду (Виктор Шамиров) [2013, Комедия, WEBRip]

Ответить на тему
 
Автор Сообщение

user ®

Стаж: 7 лет 7 месяцев

Сообщений: 20008

Пост Пост: #1 от 26-Авг-2013 03:55

[Цитировать]

Игра в правду
Жанр: Комедия
Год выпуска: 2013
Продолжительность: 01:32:19
Режиссёр: Виктор Шамиров
Выпущено: Россия, Базелевс Продакшн
В ролях: Ирина Апексимова, Константин Юшкевич, Дмитрий Марьянов, Гоша Куценко и др.
Описание: По сюжету, основанному на популярной пьесе французского драматурга Филиппа Леллуша. Трое бывших однокурсников собираются на квартире поболтать под водочку и вспомнить юность. Разухабистый бизнесмен Марк порывается вызвонить девочек, но не находит поддержки у друзей: автодилер Геннадий скорее по привычке хранит верность жене, а хозяин квартиры - физик и неудачник Анатолий - подготовил для всех сюрприз. Он приглашает в гости звезду их курса Майю, в которую все трое были влюблены 20 лет назад. Разговор на четверых не клеится, пока не начинается предельно откровенная игра в правду. Друзья узнают друг о друге то, чего, возможно, предпочли бы не знать. Пройдут ли их отношения проверку правдой?
Доп. информация: Одноимённая пьеса была написана Филиппом Леллушем, французским драматургом.
Качество видео: WEBRip
Формат видео: AVI
Видео: XviD,640x272, 29.970 fps, ~ 998 Kbit/s
Аудио: МР3, 48000 Hz, 2 каналов, 128 kbit/s
kinopoisk.ru: 7.491
IMDb: 7.80

Семпл: http://multi-up.com/896669

MediaInfo

C:\uTorrents\Igra.v.pravdu.2013.O.WEBRip.avi
General
Complete name : C:\uTorrents\Igra.v.pravdu.2013.O.WEBRip.avi
Format : AVI
Format/Info : Audio Video Interleave
File size : 749 MiB
Duration : 1h 32mn
Overall bit rate : 1 134 Kbps
Writing application : VirtualDubMod 1.5.4.1 (build 2178/release)
Writing library : VirtualDubMod build 2178/release
Video #0
ID : 0
Format : MPEG-4 Visual
Format profile : Advanced Simple@L5
Format settings, BVOP : No
Format settings, QPel : No
Format settings, GMC : No warppoints
Format settings, Matrix : Custom
Codec ID : XVID
Codec ID/Hint : XviD
Duration : 1h 32mn
Bit rate : 998 Kbps
Width : 640 pixels
Height : 272 pixels
Display aspect ratio : 2.35:1
Frame rate : 29.970 fps
Color space : YUV
Chroma subsampling : 4:2:0
Bit depth : 8 bits
Scan type : Progressive
Compression mode : Lossy
Bits/(Pixel*Frame) : 0.191
Stream size : 659 MiB (88%)
Writing library : XviD 64
Audio #1
ID : 1
Format : MPEG Audio
Format version : Version 1
Format profile : Layer 3
Mode : Joint stereo
Mode extension : MS Stereo
Codec ID : 55
Codec ID/Hint : MP3
Duration : 1h 32mn
Bit rate mode : Constant
Bit rate : 128 Kbps
Channel(s) : 2 channels
Sampling rate : 48.0 KHz
Compression mode : Lossy
Stream size : 84.5 MiB (11%)
Alignment : Aligned on interleaves
Interleave, duration : 67 ms (2.00 video frames)
Interleave, preload duration : 504 ms
Writing library : LAME3.98r
Encoding settings : -m j -V 4 -q 2 -lowpass 17 -b 128

Скриншоты





Скачать

Скачать торрент!

Как скачивать? · Что такое торрент? · Рейтинг и ограничения

Сайт не распространяет и не хранит электронные версии произведений, а лишь предоставляет доступ к создаваемому пользователями каталогу ссылок на торрент-файлы, которые содержат только списки хеш-сумм

[Профиль] [ЛС]
Показать сообщения:    
Ответить на тему

Текущее время: Сегодня 05:05

Часовой пояс: GMT + 4



Вы не можете начинать темы
Вы не можете отвечать на сообщения
Вы не можете редактировать свои сообщения
Вы не можете удалять свои сообщения
Вы не можете голосовать в опросах
Вы не можете прикреплять файлы к сообщениям
Вы не можете скачивать файлы