Беги / Run (Симон Бартесаги / Simone Bartesaghi) [2013, США, боевик, триллер, мелодрама, DVDRip-AVC] Dub

Ответить на тему
 
Автор Сообщение

user ®

Стаж: 7 лет 7 месяцев

Сообщений: 20008

Пост Пост: #1 от 26-Авг-2013 00:45

[Цитировать]

Беги / Run«Танцуй! Люби! Беги!»- Страна: США
Жанр: боевик, триллер, мелодрама
Год выпуска: 2013
Продолжительность: 01:27:09-Перевод: Профессиональный (дублированный) лицензия
Cубтитры: нет
Оригинальная аудиодорожка: нет-Режиссер: Симон Бартесаги / Simone Bartesaghi-В ролях: Уильям Моусли, Адриан Пасдар, Келси Чоу, Крейг Хенингсен, Эдоардо Баллерини, Эрик Робертс, Сол Стайн, Джон Фреда, Джозеф Перрино, Альберт Валладарес...-Описание: В нью-йоркской школе появляется таинственный ученик по имени Дэниэл. Он виртуозно владеет паркуром и сразу находит себе друзей по интересам, с которыми он может «летать» над городом, пока тот спит. Среди новых друзей прекрасная Эмили, которая безоглядно влюбляется в новичка. Но откуда приехал Дэниэл? Кто он такой? Где он жил раньше? Ведь у него полно секретов, которые он не доверяет своим друзьям. Но тайны прошлого не дремлют и Дэниэлу придётся бороться не только за свою жизнь, но и за жизнь своих новых друзей.-Доп. информация: СЭМПЛ
Автор рипа: -Качество видео: DVDRip-AVC
Формат видео: MKV
Видео: х.264, 720x572@1024x572 (16:9), 25,000 fps, 1951 Кbps, 0.189 bit/pixel
Аудио: 48 kHz, AC3 Dolby Digital, 3/2 (L,C,R,l,r) + LFE ch, 448.00 kbps DUB-

MediaInfo

General
Unique ID : 182894136312105539409738979481190898814 (0x8998211EE47C66ECBCF1E4FE33539C7E)
Complete name : Begi.2013.D.DVDRip.x264.potroks.mkv
Format : Matroska
Format version : Version 4 / Version 2
File size : 1.46 GiB
Duration : 1h 27mn
Overall bit rate : 2 399 Kbps
Movie name : -=POTROKS=-
Encoded date : UTC 2013-08-25 01:56:57
Writing application : mkvmerge v5.9.0 ('On The Loose') built on Dec 15 2012 16:39:58
Writing library : libebml v1.3.0 + libmatroska v1.4.0
Video #1
ID : 1
Format : AVC
Format/Info : Advanced Video Codec
Format profile : High@L4.1
Format settings, CABAC : Yes
Format settings, ReFrames : 13 frames
Codec ID : V_MPEG4/ISO/AVC
Duration : 1h 27mn
Bit rate : 1 951 Kbps
Width : 720 pixels
Height : 572 pixels
Display aspect ratio : 16:9
Frame rate mode : Constant
Frame rate : 25.000 fps
Color space : YUV
Chroma subsampling : 4:2:0
Bit depth : 8 bits
Scan type : Progressive
Bits/(Pixel*Frame) : 0.189
Stream size : 1.16 GiB (79%)
Title : Run
Writing library : x264 core 130 r2273 b3065e6
Encoding settings : cabac=1 / ref=13 / deblock=1:-2:-1 / analyse=0x3:0x133 / me=umh / subme=11 / psy=1 / psy_rd=1.05:0.00 / mixed_ref=1 / me_range=48 / chroma_me=1 / trellis=2 / 8x8dct=1 / cqm=0 / deadzone=21,11 / fast_pskip=0 / chroma_qp_offset=-2 / threads=8 / lookahead_threads=2 / sliced_threads=0 / nr=0 / decimate=1 / interlaced=0 / bluray_compat=0 / constrained_intra=0 / bframes=14 / b_pyramid=2 / b_adapt=2 / b_bias=0 / direct=3 / weightb=1 / open_gop=0 / weightp=2 / keyint=250 / keyint_min=23 / scenecut=40 / intra_refresh=0 / rc_lookahead=60 / rc=2pass / mbtree=0 / bitrate=1951 / ratetol=1.0 / qcomp=0.70 / qpmin=0 / qpmax=69 / qpstep=4 / cplxblur=20.0 / qblur=0.5 / vbv_maxrate=20000 / vbv_bufsize=25000 / nal_hrd=none / ip_ratio=1.35 / pb_ratio=1.25 / aq=1:0.80
Language : English
Default : Yes
Forced : No
Audio #2
ID : 2
Format : AC-3
Format/Info : Audio Coding 3
Mode extension : CM (complete main)
Format settings, Endianness : Big
Codec ID : A_AC3
Duration : 1h 27mn
Bit rate mode : Constant
Bit rate : 448 Kbps
Channel(s) : 6 channels
Channel positions : Front: L C R, Side: L R, LFE
Sampling rate : 48.0 KHz
Bit depth : 16 bits
Compression mode : Lossy
Stream size : 279 MiB (19%)
Title : Dub | DD 5.1 @ 448 kbps
Language : Russian
Default : Yes
Forced : Yes

Скриншот c названием фильма

Скриншоты

Скачать

Скачать торрент!

Как скачивать? · Что такое торрент? · Рейтинг и ограничения

Сайт не распространяет и не хранит электронные версии произведений, а лишь предоставляет доступ к создаваемому пользователями каталогу ссылок на торрент-файлы, которые содержат только списки хеш-сумм

[Профиль] [ЛС]
Показать сообщения:    
Ответить на тему

Текущее время: Сегодня 08:58

Часовой пояс: GMT + 4



Вы не можете начинать темы
Вы не можете отвечать на сообщения
Вы не можете редактировать свои сообщения
Вы не можете удалять свои сообщения
Вы не можете голосовать в опросах
Вы не можете прикреплять файлы к сообщениям
Вы не можете скачивать файлы