Моё возмездие / Vengeance Is Mine (Ли Чы Нгай / Lee Chi-Ngai, Билли Тан / Billy Tang Hin-Shing) [1988, Гонконг, триллер, DVDRip] Sub Rus

Ответить на тему
 
Автор Сообщение

user ®

Стаж: 11 лет

Сообщений: 15151

Пост Пост: #1 от 25-Авг-2013 21:35

[Цитировать]

Моё возмездие / Vengeance Is Mine
Страна: Гонконг
Жанр: триллер
Год выпуска: 1988
Продолжительность: 01:28:24-Перевод: Субтитры русские - Message of death
Субтитры: русские (вшитые)
Оригинальная аудиодорожка: Кантонский-Режиссер: Ли Чы Нгай / Lee Chi-Ngai, Билли Тан / Billy Tang Hin-Shing-В ролях: Розамунд Квань, Пат Ха, Дерек И, Джозефина Лам, Рональд Вон, Кен Тон-Описание: Джейн и Эми близкие подруги. Однажды ночью, Джейн едет к своему другу Тому на вечеринку, но на дороге её ждут 4 ублюдка, которые останавливают её и отбирают машину, но на этом они не остановились, решив её изнасиловать. Спустя некоторое время она встречает двух этих ублюдков в больнице, в которой работает медсестрой, ублюдки не долго мешкая решают её подстеречь и припугнуть, чтобы та не заявляла в полицию, но во время драки, она убивает одного из них...(Message of death)
Релиз групп: - -Качество видео: DVDRip (DVD5)
Формат видео: AVI
Видео: XviD, 688x384 (1.79:1), 25 fps, 1055 kbps avg, 0.16 bit/pixel
Аудио : Кантонский MPEG layer 3, 112 kbps
-

Доп.инфо

Рип: Message of death
Постер: Public Enemy (((

MediaInfo

Format : AVI
Format/Info : Audio Video Interleave
File size : 744 MiB
Duration : 1h 28mn
Overall bit rate : 1 177 Kbps
Writing application : VirtualDubMod 1.5.10.2 (build 2540/release)
Writing library : VirtualDubMod build 2540/release
Video
ID : 0
Format : MPEG-4 Visual
Format profile : Advanced Simple@L5
Format settings, BVOP : 1
Format settings, QPel : No
Format settings, GMC : No warppoints
Format settings, Matrix : Custom
Codec ID : XVID
Codec ID/Hint : XviD
Duration : 1h 28mn
Bit rate : 1 055 Kbps
Width : 688 pixels
Height : 384 pixels
Display aspect ratio : 16:9
Frame rate : 25.000 fps
Color space : YUV
Chroma subsampling : 4:2:0
Bit depth : 8 bits
Scan type : Progressive
Compression mode : Lossy
Bits/(Pixel*Frame) : 0.160
Stream size : 667 MiB (90%)
Writing library : XviD 73
Audio
ID : 1
Format : MPEG Audio
Format version : Version 1
Format profile : Layer 3
Mode : Joint stereo
Mode extension : MS Stereo
Codec ID : 55
Codec ID/Hint : MP3
Duration : 1h 28mn
Bit rate mode : Constant
Bit rate : 112 Kbps
Channel(s) : 2 channels
Sampling rate : 48.0 KHz
Compression mode : Lossy
Stream size : 70.8 MiB (10%)
Alignment : Aligned on interleaves
Interleave, duration : 40 ms (1.00 video frame)
Interleave, preload duration : 504 ms

Скриншот с названием

Скриншоты

Скачать

Скачать торрент! Моё возмездие / Vengeance Is Mine (Ли Чы Нгай / Lee Chi-Ngai, Билли Тан / Billy Tang Hin-Shing) [1988, Гонконг, триллер, DVDRip] Sub Rus

Как скачивать? · Что такое торрент? · Рейтинг и ограничения

Сайт не распространяет и не хранит электронные версии произведений, а лишь предоставляет доступ к создаваемому пользователями каталогу ссылок на торрент-файлы, которые содержат только списки хеш-сумм

[Профиль] [ЛС]
Показать сообщения:    
Ответить на тему

Текущее время: Сегодня 23:26

Часовой пояс: GMT + 4



Вы не можете начинать темы
Вы не можете отвечать на сообщения
Вы не можете редактировать свои сообщения
Вы не можете удалять свои сообщения
Вы не можете голосовать в опросах
Вы не можете прикреплять файлы к сообщениям
Вы не можете скачивать файлы