Четырнадцать амазонок / The 14 Amazons / The Fourteen Amazons / Shi si nu ying hao (Чэн Ган / Ching Gong, Дун Шаоюн / Tung Shao-Yung) [1972, Гонконг, боевые искусства, DVDRip] VO (Jet)

Ответить на тему
 
Автор Сообщение

user ®

Стаж: 11 лет

Сообщений: 15151

Пост Пост: #1 от 25-Авг-2013 21:35

[Цитировать]

Четырнадцать амазонок / The 14 Amazons / The Fourteen Amazons / Shi si nu ying hao
Страна: Гонконг
Жанр: боевые искусства
Год выпуска: 1972
Продолжительность: 01:57:08
Перевод: Одноголосый закадровый Jet
Cубтитры: нет
Режиссер: Чэн Ган / Ching Gong, Дун Шаоюн / Tung Shao-Yung
В ролях: Лиза Лу Янь, Айви Лин По, Лили Хо, Юэ Хуа, Шу Пэйпэй, Ван Пин, Лю Уци, Карен Ип, Ли Цзин, Тина Цзинь Фэй, Оуян Шафэй, Ван Цзиньфэн, Бетти Тин Пэй, Тереза Ха, Лам Чин, Чэнь Яньянь, Чун Ва, Фань Мэйшэн, Вон Чунсёнь, Тянь Фэн, Ван Ся, Джеймс Нам, Тин Чин, Пол Чун, Ло Лье, Боло Йен
Описание: Фильм снят по книге "Герои семьи Ян". Героическая эпопея о четырнадцати амазонках, остановивших варваров из Западного Ся и защитивших империю Cун. Четырнадцать храбрых воительниц своей доблестью, проявленной в жестоких битвах и готовностью к самопожертвованию оставили неизгладимый след в истории.
Благодарность: За перевод благодарность выражается Parthorisian, за озвучивание Виктор Береговых (Jet).
Сэмпл: http://multi-up.com/897121
Качество видео: DVDRip
Формат видео: AVI
Видео: 656x288 (2.28:1), 23.976 fps, XviD build 50 ~1590 kbps avg, 0.35 bit/pixel
Аудио: 48 kHz, AC3 Dolby Digital, 2/0 (L,R) ch, ~192 kbps

MediaInfo

Format : AVI
Format/Info : Audio Video Interleave
File size : 1,47 Гбайт
Duration : 1 ч. 57 м.
Overall bit rate : 1792 Кбит/сек
Writing application : VirtualDubMod 1.5.10.3 | www.virtualdub-fr.org || (build 2550/release)
Writing library : VirtualDubMod build 2550/release
Видео
ID : 0
Format : MPEG-4 Visual
Format profile : Advanced Simple@L5
Format settings, BVOP : 2
Format settings, QPel : Нет
Format settings, GMC : Без точки перехода
Format settings, Matrix : Default (MPEG)
Codec ID : XVID
Codec ID/Hint : XviD
Duration : 1 ч. 57 м.
Bit rate : 1591 Кбит/сек
Width : 656 пикселей
Height : 288 пикселей
Display aspect ratio : 2,25:1
Frame rate : 23,976 кадра/сек
Color space : YUV
Chroma subsampling : 4:2:0
Bit depth : 8 бит
Scan type : Прогрессивная
Compression mode : С потерями
Bits/(Pixel*Frame) : 0.351
Stream size : 1,30 Гбайт (89%)
Writing library : XviD 1.2.1 (UTC 2008-12-04)
Аудио
ID : 1
Format : AC-3
Format/Info : Audio Coding 3
Mode extension : CM (complete main)
Format settings, Endianness : Big
Codec ID : 2000
Duration : 1 ч. 57 м.
Bit rate mode : Постоянный
Bit rate : 192 Кбит/сек
Channel(s) : 2 канала
Channel positions : Front: L R
Sampling rate : 48,0 КГц
Bit depth : 16 бит
Compression mode : С потерями
Stream size : 161 Мбайт (11%)
Alignment : Разделение по промежуткам
Interleave, duration : 42 мс. (1,00 видеокадр)
Interleave, preload duration : 500 мс.

Скриншот c названием фильма

Скриншоты

Скачать

Скачать торрент! Четырнадцать амазонок / The 14 Amazons / The Fourteen Amazons / Shi si nu ying hao (Чэн Ган / Ching Gong, Дун Шаоюн / Tung Shao-Yung) [1972, Гонконг, боевые искусства, DVDRip] VO (Jet)

Как скачивать? · Что такое торрент? · Рейтинг и ограничения

Сайт не распространяет и не хранит электронные версии произведений, а лишь предоставляет доступ к создаваемому пользователями каталогу ссылок на торрент-файлы, которые содержат только списки хеш-сумм

[Профиль] [ЛС]
Показать сообщения:    
Ответить на тему

Текущее время: Сегодня 06:16

Часовой пояс: GMT + 4



Вы не можете начинать темы
Вы не можете отвечать на сообщения
Вы не можете редактировать свои сообщения
Вы не можете удалять свои сообщения
Вы не можете голосовать в опросах
Вы не можете прикреплять файлы к сообщениям
Вы не можете скачивать файлы