Гладиаторы Рима / Gladiatori di Roma (Иджинио Страффи / Iginio Straffi) [2012, мультфильм, комедия, приключения, BDRip-AVC] DUB

Ответить на тему
 
Автор Сообщение

user ®

Стаж: 13 лет

Сообщений: 15041

Пост Пост: #1 от 25-Авг-2013 18:25

[Цитировать]

Гладиаторы Рима
Gladiatori di Roma
Год выпуска: 2012
Страна: Италия
Жанр: мультфильм, комедия, приключения
Продолжительность: 01:34:04
Перевод: Профессиональный (дублированный)
русские субтитры: отсутствуют-Режиссёр: Иджинио Страффи : Iginio Straffi-Роли озвучивали: Лука Арджентеро, Лаура Кьятти, Джулианна Хаф, Белен Родригес
Роли дублировали: Дмитрий Нагиев, Рамиля Искандер, Ирина Киреева-Описание: Страшное извержение вулкана разрушает город Помпеи, и маленький Тим остается сиротой. Его спаситель, генерал Кирон, отправляет Тима в школу гладиаторов, но юный лентяй упорно не желает становиться бойцом. Повзрослев, Тим влюбляется в красавицу Лючиллу. Но чтобы покорить её сердце, нужно стать настоящим героем. Прекрасная Диана, богиня охоты и мастер по гладиаторским боям, берется за тренировки Тима перед первым боем. Но получится ли у Тима победить самого себя и стать настоящим мужчиной?-
Качество: BDRip-AVC
Формат: MKV
Видео кодек: AVC
Аудио кодек: AC3
Видео: 1024x436 23.976 fps, ~2219 kbps avg, 0.207 bit/pixel
Аудио #1: 48 kHz, AC3 Dolby Digital, 3/2 (L,C,R,l,r) + LFE ch, ~448 kbps (DUB)
Аудио #2: 48 kHz, AC3 Dolby Digital, 3/2 (L,C,R,l,r) + LFE ch, ~448 kbps (ITA)

MediaInfo

Общее
Уникальный идентификатор : 244431054783594795588409509624403818490 (0xB7E3B572405C9BC491F6F31CED4177FA)
Полное имя : D:\Im\Гладиаторы Рима\Gladiatori di Roma.2012.BDRip-AVC.mkv
Формат : Matroska
Версия формата : Version 4 / Version 2
Размер файла : 2,05 Гбайт
Продолжительность : 1 ч. 34 м.
Общий поток : 3114 Кбит/сек
Дата кодирования : UTC 2013-08-24 22:27:12
Программа кодирования : mkvmerge v6.3.0 ('You can't stop me!') built on Jun 28 2013 20:09:41
Библиотека кодирования : libebml v1.3.0 + libmatroska v1.4.0
Видео
Идентификатор : 1
Формат : AVC
Формат/Информация : Advanced Video Codec
Профиль формата : High@L4.1
Параметр CABAC формата : Да
Параметр ReFrames формата : 8 кадров
Идентификатор кодека : V_MPEG4/ISO/AVC
Продолжительность : 1 ч. 34 м.
Битрейт : 2219 Кбит/сек
Ширина : 1024 пикселя
Высота : 436 пикселей
Соотношение сторон : 2,35:1
Частота кадров : 23,976 кадра/сек
Цветовое пространство : YUV
Субдискретизация насыщенности : 4:2:0
Битовая глубина : 8 бит
Тип развёртки : Прогрессивная
Бит/(Пиксели*Кадры) : 0.207
Размер потока : 1,42 Гбайт (69%)
Библиотека кодирования : x264 core 129 r2245 bc13772
Настройки программы : cabac=1 / ref=8 / deblock=1:-3:-3 / analyse=0x3:0x133 / me=umh / subme=11 / psy=1 / psy_rd=1.00:0.10 / mixed_ref=1 / me_range=32 / chroma_me=1 / trellis=2 / 8x8dct=1 / cqm=0 / deadzone=21,11 / fast_pskip=0 / chroma_qp_offset=-3 / threads=12 / lookahead_threads=2 / sliced_threads=0 / nr=0 / decimate=0 / interlaced=0 / bluray_compat=0 / constrained_intra=0 / bframes=6 / b_pyramid=2 / b_adapt=2 / b_bias=0 / direct=3 / weightb=1 / open_gop=0 / weightp=2 / keyint=240 / keyint_min=22 / scenecut=40 / intra_refresh=0 / rc_lookahead=40 / rc=2pass / mbtree=1 / bitrate=2219 / ratetol=1.0 / qcomp=0.60 / qpmin=0 / qpmax=69 / qpstep=4 / cplxblur=20.0 / qblur=0.5 / ip_ratio=1.40 / aq=1:1.00
Default : Да
Forced : Нет
Аудио #1
Идентификатор : 2
Формат : AC-3
Формат/Информация : Audio Coding 3
Расширение режима : CM (complete main)
Идентификатор кодека : A_AC3
Продолжительность : 1 ч. 34 м.
Вид битрейта : Постоянный
Битрейт : 448 Кбит/сек
Каналы : 6 каналов
Расположение каналов : Front: L C R, Side: L R, LFE
Частота : 48,0 КГц
Битовая глубина : 16 бит
Метод сжатия : С потерями
Размер потока : 301 Мбайт (14%)
Заголовок : DUB
Язык : Russian
Default : Да
Forced : Нет
Аудио #2
Идентификатор : 3
Формат : AC-3
Формат/Информация : Audio Coding 3
Расширение режима : CM (complete main)
Идентификатор кодека : A_AC3
Продолжительность : 1 ч. 34 м.
Вид битрейта : Постоянный
Битрейт : 448 Кбит/сек
Каналы : 6 каналов
Расположение каналов : Front: L C R, Side: L R, LFE
Частота : 48,0 КГц
Битовая глубина : 16 бит
Метод сжатия : С потерями
Размер потока : 301 Мбайт (14%)
Заголовок : ITA
Язык : Italian
Default : Нет
Forced : Нет
Скачать

Скачать торрент! Гладиаторы Рима / Gladiatori di Roma (Иджинио Страффи / Iginio Straffi) [2012, мультфильм, комедия, приключения, BDRip-AVC] DUB

Как скачивать? · Что такое торрент? · Рейтинг и ограничения

Сайт не распространяет и не хранит электронные версии произведений, а лишь предоставляет доступ к создаваемому пользователями каталогу ссылок на торрент-файлы, которые содержат только списки хеш-сумм

[Профиль] [ЛС]
Показать сообщения:    
Ответить на тему

Текущее время: Сегодня 00:37

Часовой пояс: GMT + 4



Вы не можете начинать темы
Вы не можете отвечать на сообщения
Вы не можете редактировать свои сообщения
Вы не можете удалять свои сообщения
Вы не можете голосовать в опросах
Вы не можете прикреплять файлы к сообщениям
Вы не можете скачивать файлы