Скуби-Ду! Боязнь Сцены / Scooby-Doo! Stage Fright (Виктор Кук / Victor Cook) [2013, Мультипликация, WEB-DLRip] Dub

Ответить на тему
 
Автор Сообщение

user ®

Стаж: 11 лет

Сообщений: 15145

Пост Пост: #1 от 25-Авг-2013 13:00

[Цитировать]

Скуби-Ду! Боязнь Сцены / Scooby-Doo! Stage Fright Страна: США
Год выпуска: 2013
Продолжительность: 01:18:18
Перевод: Профессиональный (дублированный)
Русские субтитры: нет
Режиссёр: Виктор Кук / Victor Cook
Роли озвучивали: Исабелла Акрес, Трой Бакер, Ерик Бауза, Джефф Беннетт, Минди Кохн, Кате Хиггинс, Канди Мило, Петер МакНикол
Описание: Удивительные приключения очаровательного и смешного пса по кличке Скуби Ду вместе со своим хозяином Шеги и друзьями: Вельмой, Дафни и Фредди.
Скуби-Ду – это собака с коричневой шерстью с несколькими черными пятнами на верхней части тела. Обычно ходит на четырех лапах, но иногда и на двух, как люди. Также он может использовать передние лапы как руки. У него черный нос, по четыре пальца на каждой ноге. Он отличается от других собак тем, что у него только одна накладка на подошве каждой из лап. У Скуби цепкий хвост, которым он может нажимать на кнопки.
Его создатель, Ивао Такамото, позже рассказал о том, что когда он только придумывал персонаж, он разговаривал с хозяевами немецких догов. И они рассказали ему характеристики родословной собаки. Такамото сделал Скуби полной противоположностью. Он говорил, что сделал ему горб назад, кривые ноги и маленький подбородок. И даже изменил его цвет.- -Качество: WEB-DLRip Исходник: WEB-DL 1080p
Формат: AVI
Видео: 720x400 (1.80:1), 23.976 fps, XviD build 65 ~1192 kbps avg, 0.17 bit/pixel
Аудио: 48 kHz, MPEG Layer 3, 2 ch, ~128.00 kbps avg RUS

Дополнительно

Скуби-Ду — детектив, младший сотрудник «Мистической Корпорации». Когда-то работал поваром вместе с лучшим другом Шэгги.
Интересы Скуби те же, что и у Шэгги, но в утрированном виде; фактически они уже перерастают в страсть.
Скуби ужасно боится монстров, привидений, ведьм и прочей чертовщины — даже больше, чем Шэгги. При виде чего-нибудь потустороннего он в страхе прыгает на руки хозяину (или тому из его друзей, кто оказывается поблизости); это выглядит очень смешно, особенно если учесть, что по росту и весу Скуби и Шэгги почти одинаковы.
Он обожает вкусно поесть, но всем прочим лакомствам предпочитает «Скуби-печенье» (англ. Scooby Snacks), и его можно запросто уговорить сделать что угодно, если пообещать ему два или три печенья вместо одного.
Ему не нравится, когда о нём говорят как о собаке.
Он очень влюбчивая собака: ему нравятся и овчарки, и пекинесы, и даже чихуахуа.
Он очень забавный — практически все шутки в сериале шутит именно он.
Любимая фраза Скуби-Ду, которую он произносит нараспев в конце каждого фильма или эпизода мультсериала — «Скуби-Дуби-Ду-у-у!»

Отчет MI

GeneralComplete name : Skubi.Du.Bojazn.Sceny.2013.D.WEBDLRip.745_Olu6ka.aviFormat : AVIFormat/Info : Audio Video InterleaveFile size : 745 MiBDuration : 1h 18mnOverall bit rate : 1 330 Kbps
VideoID : 0Format : MPEG-4 VisualFormat profile : Advanced Simple@L5Format settings, BVOP : 1Format settings, QPel : NoFormat settings, GMC : No warppointsFormat settings, Matrix : CustomCodec ID : XVIDCodec ID/Hint : XviDDuration : 1h 18mnBit rate : 1 193 KbpsWidth : 720 pixelsHeight : 400 pixelsDisplay aspect ratio : 16:9Frame rate : 23.976 fpsColor space : YUVChroma subsampling : 4:2:0Bit depth : 8 bitsScan type : ProgressiveCompression mode : LossyBits/(Pixel*Frame) : 0.173Stream size : 668 MiB (90%)Writing library : XviD 65
AudioID : 1Format : MPEG AudioFormat version : Version 1Format profile : Layer 3Codec ID : 55Codec ID/Hint : MP3Duration : 1h 18mnBit rate mode : ConstantBit rate : 128 KbpsChannel(s) : 2 channelsSampling rate : 48.0 KHzCompression mode : LossyStream size : 71.7 MiB (10%)Alignment : Aligned on interleavesInterleave, duration : 42 ms (1.00 video frame)Interleave, preload duration : 504 msWriting library : LAME3.99rEncoding settings : -m s -V 4 -q 2 -lowpass 17 -b 128
Спасибо Shellters-bob за исходник!Раздача от группы
Скачать

Скачать торрент! Скуби-Ду! Боязнь Сцены / Scooby-Doo! Stage Fright (Виктор Кук / Victor Cook) [2013, Мультипликация, WEB-DLRip] Dub

Как скачивать? · Что такое торрент? · Рейтинг и ограничения

Сайт не распространяет и не хранит электронные версии произведений, а лишь предоставляет доступ к создаваемому пользователями каталогу ссылок на торрент-файлы, которые содержат только списки хеш-сумм

[Профиль] [ЛС]
Показать сообщения:    
Ответить на тему

Текущее время: Сегодня 19:16

Часовой пояс: GMT + 4



Вы не можете начинать темы
Вы не можете отвечать на сообщения
Вы не можете редактировать свои сообщения
Вы не можете удалять свои сообщения
Вы не можете голосовать в опросах
Вы не можете прикреплять файлы к сообщениям
Вы не можете скачивать файлы