Марка страны Гонделупы (Юлий Файт) [1977 г., детский, семейный, DVB-AVC]

Ответить на тему
 
Автор Сообщение

user ®

Стаж: 7 лет 7 месяцев

Сообщений: 20008

Пост Пост: #1 от 25-Авг-2013 09:50

[Цитировать]

Марка страны Гонделупы
Жанр: детский, семейный
Год выпуска: 1977
Продолжительность: 01:00:44
Режиссёры: Юлий Файт
В ролях: Павел Македонский, Евгений Лифшиц, Леонид Рисов, Ия Саввина, Юрий Коваль, Зинаида Нарышкина, Светлана Харитонова, Валентин Букин, Данила Перов, Игорь Косухин, Антонина Бендова, Валентина Пугачева
Описание: однажды у первоклассника Пети появилась тайна, в которую он не мог посвятить самого близкого своего друга — маму. Подаренная отцом «шведская серия» марок была опрометчиво отдана Петей пятикласснику в обмен на марку «великой пиратской страны Гонделупы». Но верные одноклассники разоблачили авантюриста и помогли вернуть коллекцию другу ...
Доп. информация: по одноименной повести С. Могилевской

Трансляция спутникового канала:
Семпл: http://multi-up.com/897037
Качество видео: DVB
Формат видео: MPEG-TS
Видео: MPEG4 Video (H264), 720x576@785x576 (4:3), анаморф, 25 fps, 2200 kbps
Аудио: MPEG Audio, 2 сh, 48 kHz, 192 kbps

MediaInfo

D:\Марка страны Гонделупы. (1977)_DVB by SLuMeP.ts
General #1
ID : 1 (0x1)
Complete name : D:\Марка страны Гонделупы. (1977)_DVB by SLuMeP.ts
Format : MPEG-TS
File size : 1.06 GiB
Duration : 1h 0mn
Overall bit rate : 2 492 Kbps
Video #2271
ID : 2271 (0x8DF)
Menu ID : 1 (0x1)
Format : AVC
Format/Info : Advanced Video Codec
Format profile : Main@L3.0
Format settings, CABAC : Yes
Format settings, ReFrames : 3 frames
Format settings, GOP : M=4, N=28
Codec ID : 27
Duration : 1h 0mn
Bit rate : 2 175 Kbps
Width : 720 pixels
Height : 576 pixels
Display aspect ratio : 4:3
Frame rate : 25.000 fps
Standard : Component
Color space : YUV
Chroma subsampling : 4:2:0
Bit depth : 8 bits
Scan type : Interlaced
Scan order : Top Field First
Bits/(Pixel*Frame) : 0.210
Stream size : 945 MiB (87%)
Color primaries : BT.470-6 System B, BT.470-6 System G, BT.601-6 625, BT.1358 625, BT.1700 625 PAL, BT.1700 625 SECAM
Transfer characteristics : BT.470-6 System B, BT.470-6 System G
Matrix coefficients : BT.470-6 System B, BT.470-6 System G, BT.601-6 625, BT.1358 625, BT.1700 625 PAL, BT.1700 625 SECAM, IEC 61966-2-4 601
Audio #2272
ID : 2272 (0x8E0)
Menu ID : 1 (0x1)
Format : MPEG Audio
Format version : Version 1
Format profile : Layer 2
Codec ID : 3
Duration : 1h 0mn
Bit rate mode : Constant
Bit rate : 192 Kbps
Channel(s) : 2 channels
Sampling rate : 48.0 KHz
Compression mode : Lossy
Delay relative to video : -40ms
Stream size : 83.4 MiB (8%)
Language : English

Скриншоты

Скачать

Скачать торрент!

Как скачивать? · Что такое торрент? · Рейтинг и ограничения

Сайт не распространяет и не хранит электронные версии произведений, а лишь предоставляет доступ к создаваемому пользователями каталогу ссылок на торрент-файлы, которые содержат только списки хеш-сумм

[Профиль] [ЛС]
Показать сообщения:    
Ответить на тему

Текущее время: Сегодня 20:11

Часовой пояс: GMT + 4



Вы не можете начинать темы
Вы не можете отвечать на сообщения
Вы не можете редактировать свои сообщения
Вы не можете удалять свои сообщения
Вы не можете голосовать в опросах
Вы не можете прикреплять файлы к сообщениям
Вы не можете скачивать файлы