Линкольн / Lincoln (Стивен Спилберг / Steven Spielberg) [2012, США, драма, военный, биография, история, BDRip 720p] Dub + MVO (Baibako) + MVO (Ukr) + Original (Eng) + Sub (Rus, Eng)

Ответить на тему
 
Автор Сообщение

user ®

Стаж: 7 лет 7 месяцев

Сообщений: 20008

Пост Пост: #1 от 25-Авг-2013 06:40

[Цитировать]

Линкольн / Lincoln

-
-Страна: США
Студия: DreamWorks Pictures, Twentieth Century Fox Film Corporation, Reliance Entertainment
Жанр: драма, военный, биография, история
Год выпуска: 2012
Продолжительность: 02:29:57--Перевод 1: Профессиональный (дублированный) Blu-ray
Перевод 2: Профессиональный (многоголосый закадровый) Baibako
Cубтитры: русские (forced, full), английские (full, SDH)
Оригинальная аудиодорожка: английский--Режиссер: Стивен Спилберг / Steven Spielberg
В ролях: Дэниэл Дэй-Льюис, Салли Филд, Дэвид Стрэтэйрн, Джозеф Гордон-Левитт, Джеймс Спэйдер, Хэл Холбрук, Томми Ли Джонс, Джон Хоукс, Джеки Эрл Хейли, Брюс МакГилл, Тим Блейк Нельсон, Джозеф Кросс, Джаред Харрис, Ли Пейс, Питер МакРобби, Гулливер МакГрат, Глория Рубен, Джереми Стронг, Майкл Стулбарг, Борис МакГайвер, Дэвид Костабайл, Стивен Спинелла, Уолтон Гоггинс, Дэвид Уоршофски, Колман Доминго, Дэвид Ойелоуо, Лукас Хаас, Дэйн ДеХаан, Карлос Томпсон, Билл Кэмп, Элизабет Марвел, Байрон Дженнингс, Джули Уайт--Описание: Биографическая лента об Аврааме Линкольне, шестнадцатом президенте США, который внес неоценимый вклад в победу северян во времена гражданской войны.--imdb | kinopoisk | Сэмпл--Тип релиза: BDRip 720p [Lincoln 2012 720p BluRay DD5.1 x264-HiDt]
Контейнер: MKV
Видео: MPEG-4 AVC / 5992 Кбит/сек / 1280x534 / 23,976 fps / 2,40:1 / High Profile 4.1
Аудио 1: DTS / 5.1 / 48 kHz / 768 kbps / 16 bits |Dub, Blu-ray|
Аудио 2: DTS / 5.1 / 48 kHz / 1509 kbps / 24 bits |MVO, Baibako|
Аудио 3: DTS / 5.1 / 48 kHz / 1510 kbps / 24 bits |MVO, Интересная идея, Ukrainian|
Аудио 4: DTS / 5.1 / 48 kHz / 1510 kbps / 24 bits |original|
Формат субтитров: softsub [SRT]

MediaInfo

Общее
Уникальный идентификатор : 248976093232844840089484674679956360368 (0xBB4F0D2493AC52C18543111FAD30CCB0)
Полное имя : G:\HD\Линкольн.2012.BDRip.(720p).mkv
Формат : Matroska
Версия формата : Version 2
Размер файла : 11,8 Гбайт
Продолжительность : 2 ч. 29 м.
Общий поток : 11,3 Мбит/сек
Дата кодирования : UTC 2013-08-24 17:00:13
Программа кодирования : mkvmerge v5.8.0 ('No Sleep / Pillow') built on Sep 2 2012 15:37:04
Библиотека кодирования : libebml v1.2.3 + libmatroska v1.3.0
Attachment : Yes
Видео
Идентификатор : 1
Формат : AVC
Формат/Информация : Advanced Video Codec
Профиль формата : High@L4.1
Параметр CABAC формата : Да
Параметр ReFrames формата : 12 кадров
Идентификатор кодека : V_MPEG4/ISO/AVC
Продолжительность : 2 ч. 29 м.
Битрейт : 5992 Кбит/сек
Ширина : 1280 пикселей
Высота : 534 пикселя
Соотношение сторон : 2,40:1
Режим частоты кадров : Постоянный
Частота кадров : 23,976 кадра/сек
Цветовое пространство : YUV
Субдискретизация насыщенности : 4:2:0
Битовая глубина : 8 бит
Тип развёртки : Прогрессивная
Бит/(Пиксели*Кадры) : 0.366
Размер потока : 6,04 Гбайт (51%)
Заголовок : Lincoln 2012 720p BluRay DD5.1 x264-HiDt
Библиотека кодирования : x264 core 130 r2273 b3065e6
Настройки программы : cabac=1 / ref=12 / deblock=1:-3:-3 / analyse=0x3:0x113 / me=tesa / subme=11 / psy=1 / psy_rd=0.96:0.00 / mixed_ref=1 / me_range=32 / chroma_me=1 / trellis=2 / 8x8dct=1 / cqm=0 / deadzone=21,11 / fast_pskip=0 / chroma_qp_offset=-2 / threads=12 / lookahead_threads=2 / sliced_threads=0 / nr=0 / decimate=1 / interlaced=0 / bluray_compat=0 / constrained_intra=0 / bframes=7 / b_pyramid=2 / b_adapt=2 / b_bias=0 / direct=3 / weightb=1 / open_gop=0 / weightp=2 / keyint=240 / keyint_min=23 / scenecut=40 / intra_refresh=0 / rc_lookahead=40 / rc=2pass / mbtree=1 / bitrate=5992 / ratetol=1.0 / qcomp=0.72 / qpmin=0 / qpmax=69 / qpstep=4 / cplxblur=20.0 / qblur=0.5 / ip_ratio=1.40 / aq=2:0.70
Язык : English
Default : Да
Forced : Нет
Аудио #1
Идентификатор : 2
Формат : DTS
Формат/Информация : Digital Theater Systems
Режим : 16
Параметр Endianness формата : Big
Идентификатор кодека : A_DTS
Продолжительность : 2 ч. 29 м.
Вид битрейта : Постоянный
Битрейт : 768 Кбит/сек
Каналы : 6 каналов
Расположение каналов : Front: L C R, Side: L R, LFE
Частота : 48,0 КГц
Битовая глубина : 24 бит
Метод сжатия : С потерями
Размер потока : 824 Мбайт (7%)
Заголовок : Dub, Blu-ray
Язык : Russian
Default : Да
Forced : Нет
Аудио #2
Идентификатор : 3
Формат : DTS
Формат/Информация : Digital Theater Systems
Режим : 16
Параметр Endianness формата : Big
Идентификатор кодека : A_DTS
Продолжительность : 2 ч. 29 м.
Вид битрейта : Постоянный
Битрейт : 1509 Кбит/сек
Каналы : 6 каналов
Расположение каналов : Front: L C R, Side: L R, LFE
Частота : 48,0 КГц
Битовая глубина : 24 бит
Метод сжатия : С потерями
Размер потока : 1,58 Гбайт (13%)
Заголовок : MVO, Baibako
Язык : Russian
Default : Нет
Forced : Нет
Аудио #3
Идентификатор : 4
Формат : DTS
Формат/Информация : Digital Theater Systems
Режим : 16
Параметр Endianness формата : Big
Идентификатор кодека : A_DTS
Продолжительность : 2 ч. 29 м.
Вид битрейта : Постоянный
Битрейт : 1509 Кбит/сек
Каналы : 6 каналов
Расположение каналов : Front: L C R, Side: L R, LFE
Частота : 48,0 КГц
Битовая глубина : 24 бит
Метод сжатия : С потерями
Размер потока : 1,58 Гбайт (13%)
Заголовок : MVO, Интересная идея
Язык : Ukrainian
Default : Нет
Forced : Нет
Аудио #4
Идентификатор : 5
Формат : DTS
Формат/Информация : Digital Theater Systems
Режим : 16
Параметр Endianness формата : Big
Идентификатор кодека : A_DTS
Продолжительность : 2 ч. 29 м.
Вид битрейта : Постоянный
Битрейт : 1509 Кбит/сек
Каналы : 6 каналов
Расположение каналов : Front: L C R, Side: L R, LFE
Частота : 48,0 КГц
Битовая глубина : 24 бит
Метод сжатия : С потерями
Размер потока : 1,58 Гбайт (13%)
Заголовок : Original
Язык : English
Default : Нет
Forced : Нет
Текст #1
Идентификатор : 6
Формат : UTF-8
Идентификатор кодека : S_TEXT/UTF8
Идентификатор кодека/Информация : UTF-8 Plain Text
Заголовок : Forced
Язык : Russian
Default : Да
Forced : Нет
Текст #2
Идентификатор : 7
Формат : UTF-8
Идентификатор кодека : S_TEXT/UTF8
Идентификатор кодека/Информация : UTF-8 Plain Text
Заголовок : Full
Язык : Russian
Default : Нет
Forced : Нет
Текст #3
Идентификатор : 8
Формат : UTF-8
Идентификатор кодека : S_TEXT/UTF8
Идентификатор кодека/Информация : UTF-8 Plain Text
Заголовок : Full
Язык : English
Default : Нет
Forced : Нет
Текст #4
Идентификатор : 9
Формат : UTF-8
Идентификатор кодека : S_TEXT/UTF8
Идентификатор кодека/Информация : UTF-8 Plain Text
Заголовок : SDH
Язык : English
Default : Нет
Forced : Нет
Меню
00:00:00.000 : en:Chapter 01
00:06:11.246 : en:Chapter 02
00:13:57.920 : en:Chapter 03
00:23:16.604 : en:Chapter 04
00:35:13.570 : en:Chapter 05
00:40:31.929 : en:Chapter 06
00:45:53.793 : en:Chapter 07
00:52:56.840 : en:Chapter 08
00:59:45.874 : en:Chapter 09
01:08:25.977 : en:Chapter 10
01:18:55.939 : en:Chapter 11
01:24:30.607 : en:Chapter 12
01:35:41.486 : en:Chapter 13
01:39:58.868 : en:Chapter 14
01:46:40.769 : en:Chapter 15
01:52:54.184 : en:Chapter 16
02:02:51.030 : en:Chapter 17
02:09:32.263 : en:Chapter 18
02:15:42.718 : en:Chapter 19
02:21:23.308 : en:Chapter 20

Скриншоты


Дополнительно

Все дорожки и сабы взяты с [url=http://***/forum/viewtopic.php?t=4445878]этой раздачи[/url], thx: fanatus
Скачать

Скачать торрент!

Как скачивать? · Что такое торрент? · Рейтинг и ограничения

Сайт не распространяет и не хранит электронные версии произведений, а лишь предоставляет доступ к создаваемому пользователями каталогу ссылок на торрент-файлы, которые содержат только списки хеш-сумм

[Профиль] [ЛС]
Показать сообщения:    
Ответить на тему

Текущее время: Сегодня 04:24

Часовой пояс: GMT + 4



Вы не можете начинать темы
Вы не можете отвечать на сообщения
Вы не можете редактировать свои сообщения
Вы не можете удалять свои сообщения
Вы не можете голосовать в опросах
Вы не можете прикреплять файлы к сообщениям
Вы не можете скачивать файлы