Кровью и потом: Анаболики / Pain & Gain (Майкл Бэй / Michael Bay) [2013, США, Криминал, комедия, триллер, боевик, BDRip] Dub

Ответить на тему
 
Автор Сообщение

user ®

Стаж: 7 лет 7 месяцев

Сообщений: 20008

Пост Пост: #1 от 24-Авг-2013 21:10

[Цитировать]

Кровью и потом: Анаболики / Pain & Gain
«Мечтай по-крупному»
- Год выпуска: 2013
Выпущено: США / Paramount Pictures, Platinum Dunes
Жанр: криминал, комедия, триллер, боевик
Продолжительность: 02:09:36
Перевод: Профессиональный (полное дублирование)
Субтитры: нет-Режиссер:
Майкл Бэй / Michael Bay-В ролях:
Марк Уолберг, Дуэйн Джонсон, Энтони Маки, Эд Харрис, Тони Шэлуб, Кен Жонг, Иоланта Кабау ван Касберген, Виорика Пинеда, Роб Кордри, Ребел Уилсон-Описание:
Однажды тренеру по фитнесу надоело ходить в трениках. Он решил круто изменить свою судьбу и разбогатеть. Нашел двух других незадачливых качков и предложил им план похищения своего клиента-миллионера. Но если в организме мышц больше, чем мозгов, то даже самый лучший план, подсмотренный в экшен-боевике, может не сработать…-Релиз группы [url=http://***/forum/viewtopic.php?t=1677970] [/url] | IMDB | КиноПоиск | Сэмпл |-Качество: BDRip [Pain.and.Gain.2013.1080p.BluRay.AVC.TrueHD.7.1-HDWinG]
Формат: AVI
Видео: 720x304 (2.37:1), 23.976 fps, XviD build 73 ~1416 kbps avg, 0.27 bit/pixel
Аудио: 48 kHz, AC3 Dolby Digital, 2/0 (L,R) ch, ~192.00 kbps avg
-

Скриншоты

MediaInfo

General
Complete name                            : D:\Pain_&_Gain_2013_BDRip_by_Dalemake.avi
Format                                   : AVI
Format/Info                              : Audio Video Interleave
File size                                : 1.46 GiB
Duration                                 : 2h 9mn
Overall bit rate                         : 1 618 Kbps
Writing application                      : VirtualDubMod 1.5.10.3 | www.virtualdub-fr.org || (build 2550/release)
Writing library                          : VirtualDubMod build 2550/release
Video
ID                                       : 0
Format                                   : MPEG-4 Visual
Format profile                           : Advanced Simple@L5
Format settings, BVOP                    : 1
Format settings, QPel                    : No
Format settings, GMC                     : No warppoints
Format settings, Matrix                  : Custom
Codec ID                                 : XVID
Codec ID/Hint                            : XviD
Duration                                 : 2h 9mn
Bit rate                                 : 1 416 Kbps
Width                                    : 720 pixels
Height                                   : 304 pixels
Display aspect ratio                     : 2.35:1
Frame rate                               : 23.976 fps
Color space                              : YUV
Chroma subsampling                       : 4:2:0
Bit depth                                : 8 bits
Scan type                                : Progressive
Compression mode                         : Lossy
Bits/(Pixel*Frame)                       : 0.270
Stream size                              : 1.28 GiB (88%)
Writing library                          : XviD 73
Audio
ID                                       : 1
Format                                   : AC-3
Format/Info                              : Audio Coding 3
Mode extension                           : CM (complete main)
Format settings, Endianness              : Big
Codec ID                                 : 2000
Duration                                 : 2h 9mn
Bit rate mode                            : Constant
Bit rate                                 : 192 Kbps
Channel(s)                               : 2 channels
Channel positions                        : Front: L R
Sampling rate                            : 48.0 KHz
Bit depth                                : 16 bits
Compression mode                         : Lossy
Stream size                              : 178 MiB (12%)
Alignment                                : Split accross interleaves
Interleave, duration                     : 42 ms (1.00 video frame)
Interleave, preload duration             : 500 ms
-
Скачать

Скачать торрент!

Как скачивать? · Что такое торрент? · Рейтинг и ограничения

Сайт не распространяет и не хранит электронные версии произведений, а лишь предоставляет доступ к создаваемому пользователями каталогу ссылок на торрент-файлы, которые содержат только списки хеш-сумм

[Профиль] [ЛС]
Показать сообщения:    
Ответить на тему

Текущее время: Сегодня 04:03

Часовой пояс: GMT + 4



Вы не можете начинать темы
Вы не можете отвечать на сообщения
Вы не можете редактировать свои сообщения
Вы не можете удалять свои сообщения
Вы не можете голосовать в опросах
Вы не можете прикреплять файлы к сообщениям
Вы не можете скачивать файлы