Бросающий вызов / The Challenger / Deadly Challenger / Ti guan (Эрик Цан / Eric Tsang Chi-Wai) [1979, Гонконг, боевые искусства, DVDRip] AVO (Сергей Кузнецов)

Ответить на тему
 
Автор Сообщение

user ®

Стаж: 11 лет

Сообщений: 15151

Пост Пост: #1 от 24-Авг-2013 14:55

[Цитировать]

Бросающий вызов / The Challenger / Deadly Challenger / Ti guan
Страна: Гонконг
Жанр: боевые искусства
Год выпуска: 1979
Продолжительность: 01:28:02
Перевод: Авторский (одноголосый закадровый) Сергей Кузнецов
Cубтитры: нет
Режиссер: Эрик Цан / Eric Tsang Chi-Wai
В ролях: Дэвид Чианг, Норман Чу, Филлип Ко, Лили Ли, Эрик Цан, Хуан Ха, Питер Чан, Алан Чан, Марс, Тай Бао, Лу Хуэй, Алан Чуи
Описание: Жили-были два бойца кунг-фу Чин Чен Хун и Ю Кит. Чин Чен Хун ходил по местным школам и бросал вызовы мастерам кунг-фу, всех в конец запугал. Говорил, что ищет того, кого ни разу не видел и даже имени не знает. Второй, Ю Кит, был мелким авантюристом жадным до денег. Потасовки, в которые он ввязывался, служили только одному - добыче звонкой монеты. Трудно представить, но этим, столь не похожим, людям придётся объединиться для борьбы против общего зла, мастера Пао Шен Чанга...
Благодарность: За исходник благодарность выражается Виктору Береговых (Jet).
Сэмпл: http://multi-up.com/896717
Качество видео: DVDRip
Формат видео: AVI
Видео: 704x304 (2.32:1), 23.976 fps, XviD build 50 ~2179 kbps avg, 0.42 bit/pixel
Аудио: 48 kHz, AC3 Dolby Digital, 2/0 (L,R) ch, ~192 kbps

MediaInfo

Format : AVI
Format/Info : Audio Video Interleave
File size : 1,46 Гбайт
Duration : 1 ч. 28 м.
Overall bit rate : 2381 Кбит/сек
Writing application : VirtualDubMod 1.5.10.3 | www.virtualdub-fr.org || (build 2550/release)
Writing library : VirtualDubMod build 2550/release
Видео
ID : 0
Format : MPEG-4 Visual
Format profile : Advanced Simple@L5
Format settings, BVOP : 2
Format settings, QPel : Нет
Format settings, GMC : Без точки перехода
Format settings, Matrix : Default (MPEG)
Codec ID : XVID
Codec ID/Hint : XviD
Duration : 1 ч. 28 м.
Bit rate : 2180 Кбит/сек
Width : 704 пикселя
Height : 304 пикселя
Display aspect ratio : 2,35:1
Frame rate : 23,976 кадра/сек
Color space : YUV
Chroma subsampling : 4:2:0
Bit depth : 8 бит
Scan type : Прогрессивная
Compression mode : С потерями
Bits/(Pixel*Frame) : 0.425
Stream size : 1,34 Гбайт (92%)
Writing library : XviD 1.2.1 (UTC 2008-12-04)
Аудио
ID : 1
Format : AC-3
Format/Info : Audio Coding 3
Mode extension : CM (complete main)
Format settings, Endianness : Big
Codec ID : 2000
Duration : 1 ч. 28 м.
Bit rate mode : Постоянный
Bit rate : 192 Кбит/сек
Channel(s) : 2 канала
Channel positions : Front: L R
Sampling rate : 48,0 КГц
Bit depth : 16 бит
Compression mode : С потерями
Stream size : 121 Мбайт (8%)
Alignment : Разделение по промежуткам
Interleave, duration : 42 мс. (1,00 видеокадр)
Interleave, preload duration : 500 мс.

Скриншот c названием фильма

Скриншоты

Скачать

Скачать торрент! Бросающий вызов / The Challenger / Deadly Challenger / Ti guan (Эрик Цан / Eric Tsang Chi-Wai) [1979, Гонконг, боевые искусства, DVDRip] AVO (Сергей Кузнецов)

Как скачивать? · Что такое торрент? · Рейтинг и ограничения

Сайт не распространяет и не хранит электронные версии произведений, а лишь предоставляет доступ к создаваемому пользователями каталогу ссылок на торрент-файлы, которые содержат только списки хеш-сумм

[Профиль] [ЛС]
Показать сообщения:    
Ответить на тему

Текущее время: Сегодня 21:46

Часовой пояс: GMT + 4



Вы не можете начинать темы
Вы не можете отвечать на сообщения
Вы не можете редактировать свои сообщения
Вы не можете удалять свои сообщения
Вы не можете голосовать в опросах
Вы не можете прикреплять файлы к сообщениям
Вы не можете скачивать файлы