Хранители снов / Rise of the Guardians (Питер Рэмси / Peter Ramsey) [2012, мультфильм, фэнтези, приключения, BDRip] AVO (Живов)

Ответить на тему
 
Автор Сообщение

user ®

Стаж: 13 лет

Сообщений: 15041

Пост Пост: #1 от 24-Авг-2013 11:45

[Цитировать]

Хранители снов / Rise of the Guardians«Naughty, nice. You better believe.»- Страна: США
Жанр: мультфильм, фэнтези, приключения, семейный
Год выпуска: 2012
Продолжительность: 01:37:11
Перевод: Авторский (одноголосый закадровый) Юрий Живов
Субтитры: Нет-Режиссер: Питер Рэмси / Peter Ramsey-Роли озвучивали: Крис Пайн (Jack Frost, озвучка), Алек Болдуин (North, озвучка), Джуд Лоу (Pitch, озвучка), Айла Фишер (Tooth, озвучка), Хью Джекман (Bunny, озвучка), Дакота Гойо (Jamie Bennett, озвучка), Хамани Гриффин (Caleb, озвучка), Камиль МакФедден (Claude, озвучка), Джорджи Грив (Sophie Bennett, озвучка), Эмили Нордвинд (Jamie's Mom, Jack's Mother, озвучка), Джейкоб Бертран (Monty, озвучка), Оливия Маттингли (Pippa, Jack's Sister, озвучка)-Роли дублировали: Тимур Родригез (Jack Frost), Александр Новиков (North), Сергей Смирнов (Pitch), Кристина Асмус (Tooth), Даниил Эльдаров (Bunny), Даниил Трещов (Jamie Bennett), Анна Денисова, Василиса Эльдарова-Описание: Когда злой дух Кромешник посягает на самое дорогое - детские мечты, Северянин, Ледяной Джек, Кролик, Зубная Фея и Песочный Человек впервые объединяются, чтобы создать команду Хранителей снов...-Рейтинг:

Бюджет: $145 000 000
Сборы в США: $103 215 575
Сборы в России: $14 776 751
Сборы в мире: $303 515 575
Мировая премьера: 10 октября 2012
Релиз на DVD: 25 марта 2013, «Новый Диск»
Релиз на Blu-ray: 25 марта 2013, «Новый Диск»-Семпл-Качество: BDRip [Исходник Rise of the Guardians 2012 BluRay 1080p AVC TrueHD7.1-CHDBits]
Формат: AVI
Видео: 720x400 (1.80:1), 23.976 fps, XviD build 65 ~1746 kbps avg, 0.25 bit/pixel
Аудио: 48 kHz, AC3 Dolby Digital, 3/2 (L,C,R,l,r) + LFE ch, ~384 kbps
Субтитры: Отсутствуют-

Знаете ли Вы, что...

  • Последний фильм студии DreamWorks Animation, дистрибьютором которого стала компания Paramount.
  • Пасхальный кролик предупреждает: «Даже не надейся кролика обогнать». Это шутка с намеком на басню Эзопа о гонке между черепахой и зайцем, в которой победила черепаха.
  • Пасхальный кролик открывает в земле кроличью нору и прыгает в нее. Это намек на «Алису в Стране чудес», где кроличья нора ведет в другое измерение.
  • Изначально предполагалось, что озвучивать Джека Фроста будет Леонардо ДиКаприо, но он покинул проект во время препродакшна.
  • Кристофер Ли, Дуэйн Джонсон, Натали Портман, Хью Лори и Иэн МакШейн рассматривались для озвучивания различных ролей в фильме.
  • Аниматоры, сделавшие персонаж Джека, утверждают, что в фильме ему 18 лет. Озвучивавшему его актеру (Крис Пайн) было 32, когда он записывал голос для фильма.
  • Зубная фея в фильме представляет собой комбинацию человека и колибри.
  • В мастерской во время открытия Северянин слушает и напевает сюиту Игоря Стравинского «Жар-птица».

Доп. информация

- Перевод Юрия Живова осуществлен в 2013 г. силами форумов E180 и WIDESCREEN "Кино в Авторском переводе" по заказу: fen, vik19662007, rammzez, Daniel Rock, пуля, ZeRoNe, ANISKIN50, foxlight, Nadoelo, scoopy, саспенс, ilbilb, Dr. Destructo, Bilko, Диммон, furria62, Letyoha3, Эдуард, Splinter, 21Sepsis, phaeton77, xfiles, DFCbit, Nick, perrelcin, Pe3aK, Draculas Club, tide, 48ronin.
- Звуковая дорожка с переводом Юрия Живова получена путем наложения чистого голоса на декодированный центральный канал оригинальной Dolby TrueHD дорожки с последующей сборкой в DTS-HD MA. Работа со звуком - xfiles.

MI

Format : AVIFormat/Info : Audio Video InterleaveFile size : 1.45 GiBDuration : 1h 37mnOverall bit rate : 2 140 KbpsWriting application : VirtualDubMod 1.5.10.3 | www.virtualdub-fr.org || (build 2550/release)Writing library : VirtualDubMod build 2550/release
VideoID : 0Format : MPEG-4 VisualFormat profile : Advanced Simple@L5Format settings, BVOP : 2Format settings, QPel : NoFormat settings, GMC : No warppointsFormat settings, Matrix : CustomCodec ID : XVIDCodec ID/Hint : XviDDuration : 1h 37mnBit rate : 1 747 KbpsWidth : 720 pixelsHeight : 400 pixelsDisplay aspect ratio : 16:9Frame rate : 23.976 fpsColor space : YUVChroma subsampling : 4:2:0Bit depth : 8 bitsScan type : ProgressiveCompression mode : LossyBits/(Pixel*Frame) : 0.253Stream size : 1.19 GiB (82%)Writing library : XviD 65
AudioID : 1Format : AC-3Format/Info : Audio Coding 3Mode extension : CM (complete main)Format settings, Endianness : BigCodec ID : 2000Duration : 1h 37mnBit rate mode : ConstantBit rate : 384 KbpsChannel(s) : 6 channelsChannel positions : Front: L C R, Side: L R, LFESampling rate : 48.0 KHzBit depth : 16 bitsCompression mode : LossyStream size : 267 MiB (18%)Alignment : Split accross interleavesInterleave, duration : 42 ms (1.00 video frame)Interleave, preload duration : 500 ms

Скачать

Скачать торрент! Хранители снов / Rise of the Guardians (Питер Рэмси / Peter Ramsey) [2012, мультфильм, фэнтези, приключения, BDRip] AVO (Живов)

Как скачивать? · Что такое торрент? · Рейтинг и ограничения

Сайт не распространяет и не хранит электронные версии произведений, а лишь предоставляет доступ к создаваемому пользователями каталогу ссылок на торрент-файлы, которые содержат только списки хеш-сумм

[Профиль] [ЛС]
Показать сообщения:    
Ответить на тему

Текущее время: Сегодня 10:38

Часовой пояс: GMT + 4



Вы не можете начинать темы
Вы не можете отвечать на сообщения
Вы не можете редактировать свои сообщения
Вы не можете удалять свои сообщения
Вы не можете голосовать в опросах
Вы не можете прикреплять файлы к сообщениям
Вы не можете скачивать файлы