Техасская резня бензопилой / The Texas Chainsaw Massacre (Маркус Ниспел / Marcus Nispel) [2003 г., ужасы, триллер, BDRemux 1080p] [UK Transfer] Dub + MVO + VO (Чадов) + Original + Subs

Ответить на тему
 
Автор Сообщение

user ®

Стаж: 7 лет 7 месяцев

Сообщений: 20008

Пост Пост: #1 от 24-Авг-2013 11:45

[Цитировать]

Техасская резня бензопилой / The Texas Chainsaw Massacre«If it's terror what you want, it's terror what you'll have.»- Год выпуска: 2003
Страна: США
Жанр: ужасы, триллер
Продолжительность: 01:38:18
Перевод:
- Профессиональный (Полное дублирование)
- Профессиональный (Многоголосый закадровый)
- Одноголосый закадровый - М. Чадов
Оригинальная аудиодорожка: английский-Режиссер: Маркус Ниспел
Продюсер: Майкл Бэй, Майк Флайсс, Джеффри Аллард
Сценарий: Ким Хенкел, Тоуб Хупер, Скотт Козар- -Премьера (мир): 15 октября 2003
Премьера (РФ): 5 февраля 2004-В ролях: Джессика Бил, Джонатан Такер, Эрика Лирсен, Майк Фогель, Эрик Бальфур, Эндрю Бринярски, Р. Ли Эрми, Дэвид Дорфман, Лорен Джерман, Терренс Эванс-Описание:
В штате Техас на ферме обычного работника скотобойни Томаса Хьюитта полиция обнаружила 33 изувеченных человеческих тела. Ужасающее открытие шокировало людей, и было названо самым жутким массовым убийством за все время. Газеты писали: «Дом террора национального масштаба. Бойня в Техасе». Пресса окрестила убийцу как «Человек с лицом из кожи».
Местные власти застрелили человека, носившего на лице кожаную маску. Дело было закрыто. Но в последующие годы, множество убийств показало, что полиция нашла не того преступника. Случайно уцелевший свидетель рассказал настоящую историю того, что на самом деле произошло на заброшенном техасском шоссе, когда пятеро подростков оказались в ловушке у безумного человека с бензопилой…-Качество: BDRemux 1080p SAMPLE
Исходник: UK BluRay
Формат: MKV
Видео: MPEG4 Video (H264) 1920x1080 23.976fps ~30964Kbps
Аудио #1: 48 kHz, AC3, 5.1, ~448.00 kbps avg |Дубляж, R5|
Аудио #2: 48 kHz, AC3, 5.1, ~384.00 kbps avg |Профессиональный, многоголосый|
Аудио #3: 48 kHz, AC3, 5.1, ~384.00 kbps avg |Одноголосый, закадровый - М. Чадов|
Аудио #4: 48 kHz, DTS-HD, 5.1, ~2195 Kbps (DTS Core: 5.1 / 1509 kbps / 48 kHz) |Оригинал|
Аудио #5: 48 kHz, AC3, 2.0, ~224.00 kbps avg |Production Commentary by Director, Producer & Executive Producers|
Аудио #6: 48 kHz, AC3, 2.0, ~224.00 kbps avg |Technical Commentary|
Аудио #7: 48 kHz, AC3, 2.0, ~224.00 kbps avg |Story Commentary by Director, Producer, Screenwriter & Executive Producers|
Субтитры: русские (полные, R5), английские (полные), английские (полные - для слабослышащих)
Главы: 18 шт. (подписанные)
-

MediaInfo

Общее
Уникальный идентификатор                 : 244545591678887073226265744552508485280 (0xB7F9C48D1D24658C95F74D447E2B6EA0)
Полное имя                               : D:\Видео\HD\Техасская резня бензопилой [BDRemux 1080p].mkv
Формат                                   : Matroska
Версия формата                           : Version 4 / Version 2
Размер файла                             : 24,0 Гбайт
Продолжительность                        : 1 ч. 38 м.
Режим общего битрейта                    : Переменный
Общий поток                              : 35,0 Мбит/сек
Название фильма                          : Release by spartanec163
Дата кодирования                         : UTC 2013-08-18 10:42:32
Программа кодирования                    : mkvmerge v6.3.0 ('You can't stop me!') built on Jun 28 2013 20:09:41
Библиотека кодирования                   : libebml v1.3.0 + libmatroska v1.4.0
Видео
Идентификатор                            : 1
Формат                                   : AVC
Формат/Информация                        : Advanced Video Codec
Профиль формата                          : High@L4.1
Параметр CABAC формата                   : Да
Параметр ReFrames формата                : 4 кадра
Идентификатор кодека                     : V_MPEG4/ISO/AVC
Продолжительность                        : 1 ч. 38 м.
Вид битрейта                             : Переменный
Максимальный битрейт                     : 33,0 Мбит/сек
Ширина                                   : 1920 пикселей
Высота                                   : 1080 пикселей
Соотношение сторон                       : 16:9
Режим частоты кадров                     : Постоянный
Частота кадров                           : 23,976 кадра/сек
Цветовое пространство                    : YUV
Субдискретизация насыщенности            : 4:2:0
Битовая глубина                          : 8 бит
Тип развёртки                            : Прогрессивная
Заголовок                                : BDRemux 1080p (United Kingdom)
Язык                                     : English
Default                                  : Да
Forced                                   : Нет
Основные цвета                           : BT.709
Характеристики трансфера                 : BT.709
Коэффициенты матрицы                     : BT.709
Аудио #1
Идентификатор                            : 2
Формат                                   : AC-3
Формат/Информация                        : Audio Coding 3
Расширение режима                        : CM (complete main)
Параметр Endianness формата              : Big
Идентификатор кодека                     : A_AC3
Продолжительность                        : 1 ч. 38 м.
Вид битрейта                             : Постоянный
Битрейт                                  : 448 Кбит/сек
Каналы                                   : 6 каналов
Расположение каналов                     : Front: L C R, Side: L R, LFE
Частота                                  : 48,0 КГц
Битовая глубина                          : 16 бит
Метод сжатия                             : С потерями
Размер потока                            : 315 Мбайт (1%)
Заголовок                                : AC3 5.1 448Kbps (Дубляж)
Язык                                     : Russian
Default                                  : Да
Forced                                   : Нет
Аудио #2
Идентификатор                            : 3
Формат                                   : AC-3
Формат/Информация                        : Audio Coding 3
Расширение режима                        : CM (complete main)
Параметр Endianness формата              : Big
Идентификатор кодека                     : A_AC3
Продолжительность                        : 1 ч. 38 м.
Вид битрейта                             : Постоянный
Битрейт                                  : 384 Кбит/сек
Каналы                                   : 6 каналов
Расположение каналов                     : Front: L C R, Side: L R, LFE
Частота                                  : 48,0 КГц
Битовая глубина                          : 16 бит
Метод сжатия                             : С потерями
Размер потока                            : 270 Мбайт (1%)
Заголовок                                : AC3 5.1 384Kbps (Профессиональный, многоголосый)
Язык                                     : Russian
Default                                  : Нет
Forced                                   : Нет
Аудио #3
Идентификатор                            : 4
Формат                                   : AC-3
Формат/Информация                        : Audio Coding 3
Расширение режима                        : CM (complete main)
Параметр Endianness формата              : Big
Идентификатор кодека                     : A_AC3
Продолжительность                        : 1 ч. 38 м.
Вид битрейта                             : Постоянный
Битрейт                                  : 384 Кбит/сек
Каналы                                   : 6 каналов
Расположение каналов                     : Front: L C R, Side: L R, LFE
Частота                                  : 48,0 КГц
Битовая глубина                          : 16 бит
Метод сжатия                             : С потерями
Размер потока                            : 270 Мбайт (1%)
Заголовок                                : AC3 5.1 384Kbps (Одноголосый, закадровый - М. Чадов)
Язык                                     : Russian
Default                                  : Нет
Forced                                   : Нет
Аудио #4
Идентификатор                            : 5
Формат                                   : DTS
Формат/Информация                        : Digital Theater Systems
Профиль формата                          : MA / Core
Режим                                    : 16
Параметр Endianness формата              : Big
Идентификатор кодека                     : A_DTS
Продолжительность                        : 1 ч. 38 м.
Вид битрейта                             : Переменный
Битрейт                                  : Неизвестно / 1509 Кбит/сек
Каналы                                   : 6 каналов
Расположение каналов                     : Front: L C R, Side: L R, LFE
Частота                                  : 48,0 КГц
Битовая глубина                          : 16 бит
Метод сжатия                             : Без потерь / Lossy
Заголовок                                : DTS-HD 5.1 2195Kbps (Оригинал)
Язык                                     : English
Default                                  : Нет
Forced                                   : Нет
Аудио #5
Идентификатор                            : 6
Формат                                   : AC-3
Формат/Информация                        : Audio Coding 3
Расширение режима                        : CM (complete main)
Параметр Endianness формата              : Big
Идентификатор кодека                     : A_AC3
Продолжительность                        : 1 ч. 38 м.
Вид битрейта                             : Постоянный
Битрейт                                  : 224 Кбит/сек
Каналы                                   : 2 канала
Расположение каналов                     : Front: L R
Частота                                  : 48,0 КГц
Битовая глубина                          : 16 бит
Метод сжатия                             : С потерями
Размер потока                            : 157 Мбайт (1%)
Заголовок                                : AC3 2.0 224Kbps (Production Commentary by Director, Producer & Executive Producers)
Язык                                     : English
Default                                  : Нет
Forced                                   : Нет
Аудио #6
Идентификатор                            : 7
Формат                                   : AC-3
Формат/Информация                        : Audio Coding 3
Расширение режима                        : CM (complete main)
Параметр Endianness формата              : Big
Идентификатор кодека                     : A_AC3
Продолжительность                        : 1 ч. 38 м.
Вид битрейта                             : Постоянный
Битрейт                                  : 224 Кбит/сек
Каналы                                   : 2 канала
Расположение каналов                     : Front: L R
Частота                                  : 48,0 КГц
Битовая глубина                          : 16 бит
Метод сжатия                             : С потерями
Размер потока                            : 157 Мбайт (1%)
Заголовок                                : AC3 2.0 224Kbps (Technical Commentary)
Язык                                     : English
Default                                  : Нет
Forced                                   : Нет
Аудио #7
Идентификатор                            : 8
Формат                                   : AC-3
Формат/Информация                        : Audio Coding 3
Расширение режима                        : CM (complete main)
Параметр Endianness формата              : Big
Идентификатор кодека                     : A_AC3
Продолжительность                        : 1 ч. 38 м.
Вид битрейта                             : Постоянный
Битрейт                                  : 224 Кбит/сек
Каналы                                   : 2 канала
Расположение каналов                     : Front: L R
Частота                                  : 48,0 КГц
Битовая глубина                          : 16 бит
Метод сжатия                             : С потерями
Размер потока                            : 157 Мбайт (1%)
Заголовок                                : AC3 2.0 224Kbps (Story Commentary by Director, Producer, Screenwriter & Executive Producers)
Язык                                     : English
Default                                  : Нет
Forced                                   : Нет
Текст #1
Идентификатор                            : 9
Формат                                   : UTF-8
Идентификатор кодека                     : S_TEXT/UTF8
Идентификатор кодека/Информация          : UTF-8 Plain Text
Заголовок                                : R5
Язык                                     : Russian
Default                                  : Нет
Forced                                   : Нет
Текст #2
Идентификатор                            : 10
Формат                                   : UTF-8
Идентификатор кодека                     : S_TEXT/UTF8
Идентификатор кодека/Информация          : UTF-8 Plain Text
Язык                                     : English
Default                                  : Нет
Forced                                   : Нет
Текст #3
Идентификатор                            : 11
Формат                                   : UTF-8
Идентификатор кодека                     : S_TEXT/UTF8
Идентификатор кодека/Информация          : UTF-8 Plain Text
Заголовок                                : SDH
Язык                                     : English
Default                                  : Нет
Forced                                   : Нет
Меню
00:00:00.000                             : en:Introduction
00:02:48.377                             : en:August 18, 1973
00:08:26.923                             : en:"They're All Dead"
00:13:25.972                             : en:Pit Stop
00:18:05.126                             : en:Old Crawford Mill
00:24:03.275                             : en:A Short Walk
00:32:38.373                             : en:Wrapping Up
00:37:27.162                             : en:Vestiges
00:41:24.232                             : en:"Bring It!"
00:46:14.105                             : en:Detained
00:55:38.418                             : en:Face To Face
01:01:01.575                             : en:"Poor Sweet Boy"
01:05:47.735                             : en:"Finish It"
01:11:40.338                             : en:Basement Escape
01:19:24.009                             : en:Slaughterhouse
01:26:00.447                             : en:Rescue
01:31:49.254                             : en:Epilogue
01:32:48.730                             : en:End Credits

-

Скриншоты


-

Сравнение Британского и Американского изданий

UK (AVC, 30964Kbps).....................................US (VC-1, 23136Kbps)





-
Скачать

Скачать торрент!

Как скачивать? · Что такое торрент? · Рейтинг и ограничения

Сайт не распространяет и не хранит электронные версии произведений, а лишь предоставляет доступ к создаваемому пользователями каталогу ссылок на торрент-файлы, которые содержат только списки хеш-сумм

[Профиль] [ЛС]
Показать сообщения:    
Ответить на тему

Текущее время: Сегодня 20:05

Часовой пояс: GMT + 4



Вы не можете начинать темы
Вы не можете отвечать на сообщения
Вы не можете редактировать свои сообщения
Вы не можете удалять свои сообщения
Вы не можете голосовать в опросах
Вы не можете прикреплять файлы к сообщениям
Вы не можете скачивать файлы