Мои самые счастливые звёзды / Сверкайте, сверкайте, счастливые звезды / Twinkle, Twinkle, Lucky Stars / Xia ri fu xing (Саммо Хун / Sammo Hung) [1985, Гонконг, боевик, комедия, DVDRip] [Расширенная версия / Extended Cut] VO (Kosmos87)

Ответить на тему
 
Автор Сообщение

user ®

Стаж: 11 лет

Сообщений: 15151

Пост Пост: #1 от 23-Авг-2013 19:55

[Цитировать]

Мои самые счастливые звёзды / Сверкайте, сверкайте, счастливые звезды / Twinkle, Twinkle, Lucky Stars / Xia ri fu xing
[Расширенная версия / Extended Cut]

Страна: Гонконг
Жанр: боевик, комедия
Год выпуска: 1985
Продолжительность: 01:46:44-Перевод: Одноголосый закадровый Kosmos87
Субтитры: нет-Режиссер: Саммо Хун / Sammo Hung-В ролях: Джеки Чан, Саммо Хун, Юэнь Бьяо, Чарли Чин, Ричард Нг, Эрик Цан, Джон Шам, Сибилл Ху, Розамунд Кван, Мишель Йео, Энди Лау, Ричард Нортон, Энтони Чэн, Билли Лау, Джеймс Тьен, Дик Вей, Леунг Ка Ян, Ву Ма, Мун Ли, Филип Ко, Ясуаки Курата, Майкл Мю, Кара Хуи, Уолтер Цо, Чун Фаат, Лау Кар Вин, Тай Бо, Ли Хой Сан, Дэвид Чиан, Джордж Лам-Описание: Новая команда полицейских из Гонконга топчет улицы Токио в поисках украденных бриллиантов. Им наступают на пятки местные бандиты — якудза. Мало того, в дело вмешиваются еще и международные террористы ..-- -Качество видео: DVDRip (DVD9)
Формат видео: AVI
Видео: XviD, 720x432 (1.67:1), 25 fps, 1789 kbps avg, 0.23 bit/pixel
Аудио : Русский MPEG layer 3, 160 kbps
-

Доп.инфо

Рип: Public Enemy (((
Постер: Public Enemy (((
Отдельное спасибо Karl Maka за DVD9

MediaInfo

Format : AVI
Format/Info : Audio Video Interleave
File size : 1.46 GiB
Duration : 1h 46mn
Overall bit rate : 1 960 Kbps
Writing application : VirtualDubMod 1.5.10.3 | www.virtualdub-fr.org || (build 2550/release)
Writing library : VirtualDubMod build 2550/release
Video
ID : 0
Format : MPEG-4 Visual
Format profile : Advanced Simple@L5
Format settings, BVOP : 1
Format settings, QPel : No
Format settings, GMC : No warppoints
Format settings, Matrix : Custom
Codec ID : XVID
Codec ID/Hint : XviD
Duration : 1h 46mn
Bit rate : 1 790 Kbps
Width : 720 pixels
Height : 432 pixels
Display aspect ratio : 1.667
Frame rate : 25.000 fps
Color space : YUV
Chroma subsampling : 4:2:0
Bit depth : 8 bits
Scan type : Progressive
Compression mode : Lossy
Bits/(Pixel*Frame) : 0.230
Stream size : 1.33 GiB (91%)
Writing library : XviD 73
Audio
ID : 1
Format : MPEG Audio
Format version : Version 1
Format profile : Layer 3
Codec ID : 55
Codec ID/Hint : MP3
Duration : 1h 46mn
Bit rate mode : Constant
Bit rate : 160 Kbps
Channel(s) : 2 channels
Sampling rate : 48.0 KHz
Compression mode : Lossy
Stream size : 122 MiB (8%)
Alignment : Aligned on interleaves
Interleave, duration : 40 ms (1.00 video frame)
Interleave, preload duration : 504 ms

Скриншот с названием

Скачать

Скачать торрент! Мои самые счастливые звёзды / Сверкайте, сверкайте, счастливые звезды / Twinkle, Twinkle, Lucky Stars / Xia ri fu xing (Саммо Хун / Sammo Hung) [1985, Гонконг, боевик, комедия, DVDRip] [Расширенная версия / Extended Cut] VO (Kosmos87)

Как скачивать? · Что такое торрент? · Рейтинг и ограничения

Сайт не распространяет и не хранит электронные версии произведений, а лишь предоставляет доступ к создаваемому пользователями каталогу ссылок на торрент-файлы, которые содержат только списки хеш-сумм

[Профиль] [ЛС]
Показать сообщения:    
Ответить на тему

Текущее время: Сегодня 10:27

Часовой пояс: GMT + 4



Вы не можете начинать темы
Вы не можете отвечать на сообщения
Вы не можете редактировать свои сообщения
Вы не можете удалять свои сообщения
Вы не можете голосовать в опросах
Вы не можете прикреплять файлы к сообщениям
Вы не можете скачивать файлы