Обычные дни / Ordinary Days (Инан / Inan) [2010, Южная Корея, Драма, DVDRip] VO D.I.M.

Ответить на тему
 
Автор Сообщение

user ®

Стаж: 11 лет

Сообщений: 15151

Пост Пост: #1 от 23-Авг-2013 19:55

[Цитировать]

Обычные дни / Ordinary Days
Страна: Южная Корея
Жанр: Драма
Год выпуска: 2010
Продолжительность: 01:45:52
Перевод: Одноголосый закадровый D.I.M.
Cубтитры: нет
Режиссер: Инан / Inan
В ролях: Ё-Ри Хан / Ye-ri Han
Ё-Ри Ким / Ye-ri Kim
Чжу-Сын Ли / Ju-seung Lee
Сэ-Бёк Сон / Sae-Byeok Song
Описание: Режиссёр Инан в этом фильме пытается рассмотреть
разрыв между человеком и его окружающим миром
и уловить тонкие моменты в нашей повседневной жизни.
Это история о жизни тридцатилетнего мужчины, который потерял
свою жену и сына в результате несчастного случая,
и жизнь 20-летней девушки, попавшей в автоаварию,
и столкновение подростка со смертью своего деда.
Казалось бы всё это случается постоянно рядом с нами...
Сэмпл: http://multi-up.com/896431
Качество видео: DVDRip
Формат видео: AVI
Видео: 720*384 (1,875), 23,976 fps, MPEG-4 Visual (XviD) ~ 1713 kbps avg, 0.258 bit/pixel
Аудио: MPEG Audio Layer 3, 48000Hz, stereo, 128kbps

MediaInfo

Общее
Полное имя : D:\TORENT\РАЗДАЧИ (РИПЫ)\Ordinary Days.avi
Формат : AVI
Формат/Информация : Audio Video Interleave
Размер файла : 1,37 Гбайт
Продолжительность : 1 ч. 45 м.
Общий поток : 1850 Кбит/сек
Программа кодирования : VirtualDubModRus 1.5.10.2 (build 2542/release)
Библиотека кодирования : VirtualDubMod build 2542/release
Видео
Идентификатор : 0
Формат : MPEG-4 Visual
Профиль формата : Advanced Simple@L5
Параметр BVOP формата : 1
Параметр QPel формата : Нет
Параметр GMC формата : Без точки перехода
Параметр матрицы формата : Выборочная
Идентификатор кодека : XVID
Идентификатор кодека/Подсказка : XviD
Продолжительность : 1 ч. 45 м.
Битрейт : 1713 Кбит/сек
Ширина : 720 пикс.
Высота : 384 пикс.
Соотношение сторон : 1,875
Частота кадров : 23,976 кадр/сек
Цветовое пространство : YUV
Подвыборка цветности : 4:2:0
Битовая глубина : 8 бит
Тип развёртки : Прогрессивная
Метод сжатия : С потерями
Бит/(Пиксели*Кадры) : 0.258
Размер потока : 1,27 Гбайт (93%)
Библиотека кодирования : XviD 63
Аудио
Идентификатор : 1
Формат : MPEG Audio
Версия формата : Version 1
Профиль формата : Layer 3
Режим : Joint stereo
Расширение режима : MS Stereo
Идентификатор кодека : 55
Идентификатор кодека/Подсказка : MP3
Продолжительность : 1 ч. 45 м.
Вид битрейта : Постоянный
Битрейт : 128 Кбит/сек
Канал(ы) : 2 канала(ов)
Частота : 48,0 КГц
Метод сжатия : С потерями
Размер потока : 96,9 Мбайт (7%)
Выравнивание : Соединение по промежуткам
Продолжительность промежутка : 42 мс. (1,00 видеокадр)
Время предзагрузки промежутка : 504 ms
Библиотека кодирования : LAME3.98.2
Язык : Russian

Скриншот c названием фильма

Скриншоты

Скачать

Скачать торрент! Обычные дни / Ordinary Days (Инан / Inan) [2010, Южная Корея, Драма, DVDRip] VO D.I.M.

Как скачивать? · Что такое торрент? · Рейтинг и ограничения

Сайт не распространяет и не хранит электронные версии произведений, а лишь предоставляет доступ к создаваемому пользователями каталогу ссылок на торрент-файлы, которые содержат только списки хеш-сумм

[Профиль] [ЛС]
Показать сообщения:    
Ответить на тему

Текущее время: Сегодня 10:53

Часовой пояс: GMT + 4



Вы не можете начинать темы
Вы не можете отвечать на сообщения
Вы не можете редактировать свои сообщения
Вы не можете удалять свои сообщения
Вы не можете голосовать в опросах
Вы не можете прикреплять файлы к сообщениям
Вы не можете скачивать файлы