Голубой зонтик / Синий зонтик / The Blue Umbrella (Вишал Бхардвадж / Vishal Bhardwaj) [2005, Индия, Драма, семейный, DVDRip] MVO (Red Media)

Ответить на тему
 
Автор Сообщение

user ®

Стаж: 12 лет

Сообщений: 15124

Пост Пост: #1 от 23-Авг-2013 19:55

[Цитировать]

Голубой зонтик / Синий зонтик / The Blue Umbrella
-Страна: Индия
Жанр: Драма, семейный
Год выпуска: 2005
Продолжительность: 01:30:14-Язык: Хинди
Перевод: Профессиональный (многоголосый закадровый) - Red Media
Cубтитры: Нет-Режиссер: Вишал Бхардвадж / Vishal Bhardwaj-В ролях:
Шрия Шарма / Shreya Sharma
Панкадж Капур / Pankaj Kapur
Дипак Добриял / Deepak Dobriyal
Рахул Кумар / Rahul Kumar
Манек Беди / Manek Bedi
...и многие другие.-Описание: Голубой зонтик - это экранизация романа Раскина Бонда (Ruskin Bond) - "The Blue Umbrella". Маленькая деревенская девочка Бинья обменивает своё ожерелье на синий зонтик. Обычный голубой зонтик, который становится объектом зависти владельца старого разваливающегося магазинчика. Он готов на всё, чтобы заполучить этот зонтик... даже на то, чтобы украсть.-Доп. информация: В 2006 году фильм получил национальную награду "National Film Award" в номинации "Best Children's Film".-Мировая премьера: 12 октября 2005 года, Южная Корея, Международный кинофестиваль в Пусане.
В Индии фильм был представлен публике лишь 10 августа 2007 года.
-- | Кинопоиск | Трейлер--Качество видео: DVDRip
Исходник: DVD5
Формат видео: AVI-Видео: XviD, 608х256, 23.976 fps, 1025 Kbps
Аудио: MP3, 44.1 KHz, 2ch, 128 Kbps--Риппер, сведение звука: soso4eg-- --

Скриншот с названием:


-

Скриншоты:


-

MediaInfo:

Общее
Полное имя : C:\INDIYA\[Релизы]\Siniy.Zontik.2005.DVDRip.XviD.soso4eg.avi
Формат : AVI
Формат/Информация : Audio Video Interleave
Размер файла : 750 Мбайт
Продолжительность : 1 ч. 30 м.
Общий поток : 1162 Кбит/сек
Название фильма : Siniy.Zontik.2005.DVDRip.XviD.soso4eg
Режиссёр : soso4eg
Программа кодирования : VirtualDubMod 1.5.10.3 | www.virtualdub-fr.org || (build 2550/release)
Видео
Идентификатор : 0
Формат : MPEG-4 Visual
Профиль формата : Advanced Simple@L5
Параметр BVOP формата : 2
Параметр QPel формата : Нет
Параметр GMC формата : Без точки перехода
Параметр матрицы формата : Default (H.263)
Идентификатор кодека : XVID
Идентификатор кодека/Подсказка : XviD
Продолжительность : 1 ч. 30 м.
Битрейт : 1025 Кбит/сек
Ширина : 608 пикселей
Высота : 256 пикселей
Соотношение сторон : 2,40:1
Частота кадров : 23,976 кадра/сек
Цветовое пространство : YUV
Субдискретизация насыщенности : 4:2:0
Битовая глубина : 8 бит
Тип развёртки : Прогрессивная
Метод сжатия : С потерями
Бит/(Пиксели*Кадры) : 0.275
Размер потока : 661 Мбайт (88%)
Библиотека кодирования : XviD 1.2.1 (UTC 2008-12-04)
Аудио
Идентификатор : 1
Формат : MPEG Audio
Версия формата : Version 1
Профиль формата : Layer 3
Идентификатор кодека : 55
Идентификатор кодека/Подсказка : MP3
Продолжительность : 1 ч. 30 м.
Вид битрейта : Постоянный
Битрейт : 128 Кбит/сек
Каналы : 2 канала
Частота : 44,1 КГц
Метод сжатия : С потерями
Размер потока : 82,6 Мбайт (11%)
Выравнивание : Разделение по промежуткам
Продолжительность промежутка : 42 мс. (1,00 видеокадр)
Время предзагрузки промежутка : 500 мс.
Скачать

Скачать торрент! Голубой зонтик / Синий зонтик / The Blue Umbrella (Вишал Бхардвадж / Vishal Bhardwaj) [2005, Индия, Драма, семейный, DVDRip] MVO (Red Media)

Как скачивать? · Что такое торрент? · Рейтинг и ограничения

Сайт не распространяет и не хранит электронные версии произведений, а лишь предоставляет доступ к создаваемому пользователями каталогу ссылок на торрент-файлы, которые содержат только списки хеш-сумм

[Профиль] [ЛС]
Показать сообщения:    
Ответить на тему

Текущее время: Сегодня 21:52

Часовой пояс: GMT + 4



Вы не можете начинать темы
Вы не можете отвечать на сообщения
Вы не можете редактировать свои сообщения
Вы не можете удалять свои сообщения
Вы не можете голосовать в опросах
Вы не можете прикреплять файлы к сообщениям
Вы не можете скачивать файлы