Заколдованная Элла / Ella Enchanted (Томми О’Хейвер / Tommy O'Haver) [2004, США, Ирландия, Великобритания, фэнтези, мелодрама, комедия, семейный, BDRip 720p] Dub + DVO + Ukr + Eng (Original, Commentary) + Subs

Ответить на тему
 
Автор Сообщение

user ®

Стаж: 7 лет 7 месяцев

Сообщений: 20008

Пост Пост: #1 от 23-Авг-2013 19:55

[Цитировать]

-Заколдованная Элла / Ella Enchanted- Страна: США, Ирландия, Великобритания
Жанр: фэнтези, мелодрама, комедия, семейный
Год выпуска: 2004
Продолжительность: 01:36:13-Перевод: Профессиональный (дублированный)
Перевод: Профессиональный (двухголосый закадровый)
Cубтитры: Russian (Dub), Russian (В. Бродовой), English
Оригинальная аудиодорожка: английская-Режиссер: Томми О’Хейвер / Tommy O'Haver
В ролях: Энн Хэтэуэй, Хью Дэнси, Кэри Элвис, Эйдан МакАрдл, Джоанна Ламли, Люси Панч, Дженнифер Хайэм, Минни Драйвер, Эрик Айдл, Стив Куган-Описание: В детстве Элла получила от феи необычный «подарок» - повиновение. Теперь она не может отказаться ни от какой просьбы или указания, от кого бы они не исходили. Повзрослев, Элла отправляется на поиски коварной Люсинды, чтобы освободиться от чар. Кто только не встретиться ей в пути: и эльфы, и орки и великаны. А как их обхитришь, имея такую черту?..-Сэмпл: http://www.sendspace.com/file/aj9q6c-Тип релиза: BDRip 720p
Контейнер: MKV
Видео: MPEG-4 AVC Video 6920 kbps / 1280x720p / 23,976 fps / 16:9 / High Profile 4.1
Аудио 1: Dolby Digital Audio Russian 5.1 / 48 kHz / 384 kbps / 16-bit |Дубляж|
Аудио 2: Dolby Digital Audio Russian 5.1 / 48 kHz / 384 kbps / 16-bit |Двухголосый закадровый|
Аудио 3: Dolby Digital Audio Ukrainian 2.0 / 48 kHz / 192 kbps / 16-bit |Многоголосый закадровый|
Аудио 4: DTS Audio English 5.1 / 48 kHz / 1509 kbps / 24-bit
Аудио 5: Dolby Digital Audio English 2.0 / 48 kHz / 192 kbps / 16-bit |Commentary with Director Tommy O'Haver and Actors Anne Hathaway and Hugh Dancy|
Формат субтитров: softsub (SRT)-

Рип от FelixHD

x264 [info]: frame I:1237 Avg QP:15.59 size:200510
x264 [info]: frame P:33098 Avg QP:17.73 size: 64932
x264 [info]: frame B:104096 Avg QP:20.30 size: 24893
x264 [info]: consecutive B-frames: 4.6% 3.5% 8.0% 20.3% 16.7% 35.5% 6.3% 1.9% 1.6% 0.7% 0.5% 0.6%
encoded 138431 frames, 4.35 fps, 6911.91 kb/s

MI

Format                                   : Matroska
Format version                           : Version 4 / Version 2
File size                                : 6.44 GiB
Duration                                 : 1h 36mn
Overall bit rate                         : 9 576 Kbps
Movie name                               : Ella Enchanted (2004) - Release for HDClub
Encoded date                             : UTC 2013-08-20 14:21:43
Writing application                      : mkvmerge v6.3.0 ('You can't stop me!') built on Jun 28 2013 20:09:41
Writing library                          : libebml v1.3.0 + libmatroska v1.4.0
Video
ID                                       : 1
Format                                   : AVC
Format/Info                              : Advanced Video Codec
Format profile                           : High@L4.1
Format settings, CABAC                   : Yes
Format settings, ReFrames                : 9 frames
Codec ID                                 : V_MPEG4/ISO/AVC
Duration                                 : 1h 36mn
Bit rate                                 : 6 920 Kbps
Width                                    : 1 280 pixels
Height                                   : 720 pixels
Display aspect ratio                     : 16:9
Frame rate mode                          : Constant
Frame rate                               : 23.976 fps
Color space                              : YUV
Chroma subsampling                       : 4:2:0
Bit depth                                : 8 bits
Scan type                                : Progressive
Bits/(Pixel*Frame)                       : 0.313
Stream size                              : 4.52 GiB (70%)
Title                                    : Ella.Enchanted.2004.720p.BluRay.2xRus.Ukr.Eng.ac3.dts.sub
Writing library                          : x264 core 133 r2334 a3ac64b
Encoding settings                        : cabac=1 / ref=9 / deblock=1:-3:-3 / analyse=0x3:0x133 / me=umh / subme=11 / psy=1 / psy_rd=1.10:0.05 / mixed_ref=1 / me_range=32 / chroma_me=1 / trellis=2 / 8x8dct=1 / cqm=0 / deadzone=21,11 / fast_pskip=1 / chroma_qp_offset=-3 / threads=6 / lookahead_threads=1 / sliced_threads=0 / nr=0 / decimate=1 / interlaced=0 / bluray_compat=0 / constrained_intra=0 / bframes=11 / b_pyramid=2 / b_adapt=2 / b_bias=0 / direct=3 / weightb=1 / open_gop=0 / weightp=2 / keyint=240 / keyint_min=23 / scenecut=40 / intra_refresh=0 / rc_lookahead=60 / rc=2pass / mbtree=0 / bitrate=6920 / ratetol=1.0 / qcomp=0.60 / qpmin=0 / qpmax=69 / qpstep=4 / cplxblur=20.0 / qblur=0.5 / vbv_maxrate=50000 / vbv_bufsize=62500 / nal_hrd=none / ip_ratio=1.40 / pb_ratio=1.30 / aq=1:0.90
Language                                 : English
Default                                  : Yes
Forced                                   : No
Audio #1
ID                                       : 2
Format                                   : AC-3
Format/Info                              : Audio Coding 3
Mode extension                           : CM (complete main)
Format settings, Endianness              : Big
Codec ID                                 : A_AC3
Duration                                 : 1h 36mn
Bit rate mode                            : Constant
Bit rate                                 : 384 Kbps
Channel(s)                               : 6 channels
Channel positions                        : Front: L C R, Side: L R, LFE
Sampling rate                            : 48.0 KHz
Bit depth                                : 16 bits
Compression mode                         : Lossy
Stream size                              : 264 MiB (4%)
Title                                    : ac3 5.1 @ 384 kbps |Dublyazh|
Language                                 : Russian
Default                                  : Yes
Forced                                   : No
Audio #2
ID                                       : 3
Format                                   : AC-3
Format/Info                              : Audio Coding 3
Mode extension                           : CM (complete main)
Format settings, Endianness              : Big
Codec ID                                 : A_AC3
Duration                                 : 1h 36mn
Bit rate mode                            : Constant
Bit rate                                 : 384 Kbps
Channel(s)                               : 6 channels
Channel positions                        : Front: L C R, Side: L R, LFE
Sampling rate                            : 48.0 KHz
Bit depth                                : 16 bits
Compression mode                         : Lossy
Stream size                              : 264 MiB (4%)
Title                                    : ac3 5.1 @ 384 kbps |DVO|
Language                                 : Russian
Default                                  : No
Forced                                   : No
Audio #3
ID                                       : 4
Format                                   : AC-3
Format/Info                              : Audio Coding 3
Mode extension                           : CM (complete main)
Format settings, Endianness              : Big
Codec ID                                 : A_AC3
Duration                                 : 1h 36mn
Bit rate mode                            : Constant
Bit rate                                 : 192 Kbps
Channel(s)                               : 2 channels
Channel positions                        : Front: L R
Sampling rate                            : 48.0 KHz
Bit depth                                : 16 bits
Compression mode                         : Lossy
Stream size                              : 132 MiB (2%)
Title                                    : ac3 2.0 @ 192 |MVO, Ukr|
Language                                 : Ukrainian
Default                                  : No
Forced                                   : No
Audio #4
ID                                       : 5
Format                                   : DTS
Format/Info                              : Digital Theater Systems
Mode                                     : 16
Format settings, Endianness              : Big
Codec ID                                 : A_DTS
Duration                                 : 1h 36mn
Bit rate mode                            : Constant
Bit rate                                 : 1 509 Kbps
Channel(s)                               : 6 channels
Channel positions                        : Front: L C R, Side: L R, LFE
Sampling rate                            : 48.0 KHz
Bit depth                                : 24 bits
Compression mode                         : Lossy
Stream size                              : 1.01 GiB (16%)
Title                                    : dts 5.1 @ 1509 kbps
Language                                 : English
Default                                  : No
Forced                                   : No
Audio #5
ID                                       : 6
Format                                   : AC-3
Format/Info                              : Audio Coding 3
Mode extension                           : CM (complete main)
Format settings, Endianness              : Big
Codec ID                                 : A_AC3
Duration                                 : 1h 36mn
Bit rate mode                            : Constant
Bit rate                                 : 192 Kbps
Channel(s)                               : 2 channels
Channel positions                        : Front: L R
Sampling rate                            : 48.0 KHz
Bit depth                                : 16 bits
Compression mode                         : Lossy
Stream size                              : 132 MiB (2%)
Title                                    : ac3 2.0 @ 192 kbps |commentary|
Language                                 : English
Default                                  : No
Forced                                   : No
Text #1
ID                                       : 7
Format                                   : UTF-8
Codec ID                                 : S_TEXT/UTF8
Codec ID/Info                            : UTF-8 Plain Text
Language                                 : Russian
Default                                  : No
Forced                                   : No
Text #2
ID                                       : 8
Format                                   : UTF-8
Codec ID                                 : S_TEXT/UTF8
Codec ID/Info                            : UTF-8 Plain Text
Title                                    : Brodovoy
Language                                 : Russian
Default                                  : No
Forced                                   : No
Text #3
ID                                       : 9
Format                                   : UTF-8
Codec ID                                 : S_TEXT/UTF8
Codec ID/Info                            : UTF-8 Plain Text
Language                                 : English
Default                                  : No
Forced                                   : No
Menu
00:00:00.000                             : en:"The perfect child"
00:05:10.852                             : en:Mother's gift
00:07:32.702                             : en:Ella's new family
00:10:55.196                             : en:"Hold your tongue"
00:12:50.603                             : en:"Image is everything"
00:15:54.036                             : en:"Call me char"
00:20:05.829                             : en:Under arrest
00:24:39.311                             : en:Off to find lucinda
00:27:57.217                             : en:An origami master
00:30:12.894                             : en:Dancing for the man
00:35:12.735                             : en:" How do you like to be eaten?"
00:40:06.153                             : en:Making a good argument
00:43:29.148                             : en:A giant wedding party
00:47:58.292                             : en:Somebody to love
00:55:16.521                             : en:At the castle
00:59:35.655                             : en:Edgar's evil plans
01:05:53.199                             : en:The hardest thing...
01:08:11.629                             : en:The coronation ball
01:13:09.343                             : en:Deadly obediance
01:18:01.468                             : en:"We got a coronation to crash"
01:20:37.624                             : en:"It's payback time"
01:25:59.028                             : en:Don't go breakin' my heart
01:30:17.912                             : en:End credits

Скриншоты

Source_____________________________________Encode________________________________________SiNNERS




  • За покупку исходного Blu-ray огромное спасибо: Diablo, RAUL
  • Чаптеры подписаны
Скачать

Скачать торрент!

Как скачивать? · Что такое торрент? · Рейтинг и ограничения

Сайт не распространяет и не хранит электронные версии произведений, а лишь предоставляет доступ к создаваемому пользователями каталогу ссылок на торрент-файлы, которые содержат только списки хеш-сумм

[Профиль] [ЛС]
Показать сообщения:    
Ответить на тему

Текущее время: Сегодня 12:31

Часовой пояс: GMT + 4



Вы не можете начинать темы
Вы не можете отвечать на сообщения
Вы не можете редактировать свои сообщения
Вы не можете удалять свои сообщения
Вы не можете голосовать в опросах
Вы не можете прикреплять файлы к сообщениям
Вы не можете скачивать файлы