Раны войны / Forbidden Ground (Йохан Эрл / Johan Earl, Адриан Пауэрс / Adrian Powers) [2013, Австралия, военная драма, DVDRip] VO

Ответить на тему
 
Автор Сообщение

user ®

Стаж: 7 лет 7 месяцев

Сообщений: 20008

Пост Пост: #1 от 23-Авг-2013 19:55

[Цитировать]

Раны войны / Forbidden Ground«Millions died on the battlefield but the worst tragedies occurred at home.» Страна: Австралия
Жанр: военная драма
Год выпуска: 2013
Продолжительность: 01:34:56
Перевод: Одноголосый закадровый [datynet]
Cубтитры: нет-Режиссер: Йохан Эрл / Johan Earl, Адриан Пауэрс / Adrian Powers
В ролях: Йохан Эрл, Тим Пакок, Мартин Коппинг, Денай Грейси, Сара Моуби, Бэрри Куин-Описание: Франция, 1916 год. Трое британских солдат оказываются на нейтральной полосе после неудачной атаки на немецкие окопы.-Доп. информация: премьера (мир) 19 августа 2013

-Качество видео: DVDRip
Формат видео: AVI
Видео: Xvid 720x304 25.00fps 800Kbps
Аудио: MP3, 2 ch, 192 Кбит/с

MediaInfo

Общее
Полное имя : E:\Раны в2ойны.avi
Формат : AVI
Формат/Информация : Audio Video Interleave
Размер файла : 680 Мбайт
Продолжительность : 1 ч. 34 м.
Общий поток : 1002 Кбит/сек
Библиотека кодирования : VirtualDub build 32706/release
Видео
Идентификатор : 0
Формат : MPEG-4 Visual
Профиль формата : Advanced Simple@L5
Параметр BVOP формата : 1
Параметр QPel формата : Нет
Параметр GMC формата : Без точки перехода
Параметр матрицы формата : Выборочная
Идентификатор кодека : XVID
Идентификатор кодека/Подсказка : XviD
Продолжительность : 1 ч. 34 м.
Битрейт : 800 Кбит/сек
Ширина : 720 пикселей
Высота : 304 пикселя
Соотношение сторон : 2,35:1
Частота кадров : 25,000 кадров/сек
Цветовое пространство : YUV
Субдискретизация насыщенности : 4:2:0
Битовая глубина : 8 бит
Тип развёртки : Прогрессивная
Метод сжатия : С потерями
Бит/(Пиксели*Кадры) : 0.146
Размер потока : 543 Мбайт (80%)
Библиотека кодирования : XviD 1.2.1 (UTC 2008-12-04)
Аудио
Идентификатор : 1
Формат : MPEG Audio
Версия формата : Version 1
Профиль формата : Layer 3
Режим : Joint stereo
Идентификатор кодека : 55
Идентификатор кодека/Подсказка : MP3
Продолжительность : 1 ч. 34 м.
Вид битрейта : Постоянный
Битрейт : 192 Кбит/сек
Каналы : 2 канала
Частота : 48,0 КГц
Метод сжатия : С потерями
Размер потока : 130 Мбайт (19%)
Выравнивание : Разделение по промежуткам
Продолжительность промежутка : 40 мс. (1,00 видеокадр)
Время предзагрузки промежутка : 500 мс.

Скриншоты

Скачать

Скачать торрент!

Как скачивать? · Что такое торрент? · Рейтинг и ограничения

Сайт не распространяет и не хранит электронные версии произведений, а лишь предоставляет доступ к создаваемому пользователями каталогу ссылок на торрент-файлы, которые содержат только списки хеш-сумм

[Профиль] [ЛС]
Показать сообщения:    
Ответить на тему

Текущее время: Сегодня 05:56

Часовой пояс: GMT + 4



Вы не можете начинать темы
Вы не можете отвечать на сообщения
Вы не можете редактировать свои сообщения
Вы не можете удалять свои сообщения
Вы не можете голосовать в опросах
Вы не можете прикреплять файлы к сообщениям
Вы не можете скачивать файлы