Пока я жив / Jab Tak Hai Jaan (Яш Чопра / Yash Chopra) [2012, Индия, драма, мелодрама, BDRip] MVO (Baibak&Ko)

Ответить на тему
 
Автор Сообщение

user ®

Стаж: 12 лет

Сообщений: 15124

Пост Пост: #1 от 23-Авг-2013 13:35

[Цитировать]

Пока я жив / Jab Tak Hai Jaan- Год выпуска: 2012
Выпущено: Индия
Жанр: драма, мелодрама
Продолжительность: 02:56:11
Перевод: Профессиональный (многоголосый закадровый) Baibak&Ko
Субтитры: нет-Режиссер: Яш Чопра / Yash Chopra
В ролях: Шахрукх Кхан, Катрина Каиф, Анушка Шарма, Анупам Кхер, Риши Капур, Ниту Сингх
О фильме: Это история о Самар Ананде, майоре индийской армии из отряда сапёров. Все поражаются, как без капли страха за свою жизнь он обезвреживает бомбы, он совсем не боится смерти. Однажды он спасает тонущую Акиру, репортёра Discovery Channel, и нечаянно забывает у неё свою куртку. Акира находит в ней его дневник и узнаёт историю о Самаре, его единственной любви Мире и одной клятве, которая перевернула всю его жизнь. ..
Релиз:
Автор: kingsize87
Качество: BDRip (источник: Alkaed / BD-Remux / 1080p)
Формат: AVI
Видео: 720x304 (2.37:1), 24 fps, XviD build 65 ~1902 kbps avg, 0.36 bit/pixel
Аудио : 48 kHz, AC3 Dolby Digital, 3/2 (L,C,R,l,r) + LFE ch, ~448.00 kbps avg
Размер: 2970.32 Mb (2/3 DVD-R)
Скачать: Семпл- -

Mi


Формат : AVI
Формат/Информация : Audio Video Interleave
Профиль формата : OpenDML
Размер файла : 2,90 Гбайт
Продолжительность : 2 ч. 56 м.
Общий поток : 2357 Кбит/сек
Название фильма : Пока я жив / Jab Tak Hai Jaan (2012) BDRip
Режиссёр : kingsize87
Программа кодирования : VirtualDubMod 1.5.10.2 (build 2540/release)
Правообладатель : HQCLUB
Примечание : 23.08.2013
Видео
Идентификатор : 0
Формат : MPEG-4 Visual
Профиль формата : Advanced Simple@L5
Параметр BVOP формата : 1
Параметр QPel формата : Нет
Параметр GMC формата : Без точки перехода
Параметр матрицы формата : Выборочная
Идентификатор кодека : XVID
Идентификатор кодека/Подсказка : XviD
Продолжительность : 2 ч. 56 м.
Битрейт : 1899 Кбит/сек
Ширина : 720 пикселей
Высота : 304 пикселя
Соотношение сторон : 2,35:1
Частота кадров : 24,000 кадра/сек
Цветовое пространство : YUV
Субдискретизация насыщенности : 4:2:0
Битовая глубина : 8 бит
Тип развёртки : Прогрессивная
Метод сжатия : С потерями
Бит/(Пиксели*Кадры) : 0.362
Размер потока : 2,34 Гбайт (81%)
Библиотека кодирования : XviD 65
Аудио
Идентификатор : 1
Формат : AC-3
Формат/Информация : Audio Coding 3
Расширение режима : CM (complete main)
Параметр Endianness формата : Big
Идентификатор кодека : 2000
Продолжительность : 2 ч. 56 м.
Вид битрейта : Постоянный
Битрейт : 448 Кбит/сек
Каналы : 6 каналов
Расположение каналов : Front: L C R, Side: L R, LFE
Частота : 48,0 КГц
Битовая глубина : 16 бит
Метод сжатия : С потерями
Размер потока : 564 Мбайт (19%)
Выравнивание : Разделение по промежуткам
Продолжительность промежутка : 42 мс. (1,00 видеокадр)
Время предзагрузки промежутка : 500 мс.
-
Скачать

Скачать торрент! Пока я жив / Jab Tak Hai Jaan (Яш Чопра / Yash Chopra) [2012, Индия, драма, мелодрама, BDRip] MVO (Baibak&Ko)

Как скачивать? · Что такое торрент? · Рейтинг и ограничения

Сайт не распространяет и не хранит электронные версии произведений, а лишь предоставляет доступ к создаваемому пользователями каталогу ссылок на торрент-файлы, которые содержат только списки хеш-сумм

[Профиль] [ЛС]

vavan90

Стаж: 9 лет 5 месяцев

Сообщений: 1

Пост Пост: #2 от 28-Авг-2013 15:28 (спустя 5 дней)

[Цитировать]

Фильм класс подруга аж ревела в оконцовке. bk
[Профиль] [ЛС]
Показать сообщения:    
Ответить на тему

Текущее время: Сегодня 20:42

Часовой пояс: GMT + 4



Вы не можете начинать темы
Вы не можете отвечать на сообщения
Вы не можете редактировать свои сообщения
Вы не можете удалять свои сообщения
Вы не можете голосовать в опросах
Вы не можете прикреплять файлы к сообщениям
Вы не можете скачивать файлы