Крутая красотка / Tough Beauty and the Sloppy Slop / Angry Sea Mighty Dragon / Mabangis na lungsod / No hoi wai lung (Юэнь Бун / Yuen Bun, Алан Чуи / Alan Chui) [1995 г., боевик, криминал, боевые искусства, DVDRip] AVO (Кашкин)

Ответить на тему
 
Автор Сообщение

user ®

Стаж: 11 лет

Сообщений: 15151

Пост Пост: #1 от 23-Авг-2013 07:15

[Цитировать]

Крутая красотка / Tough Beauty and the Sloppy Slop / Angry Sea Mighty Dragon / Mabangis na lungsod / No hoi wai lung
Год выпуска: 1995
Страна: Гонконг, Филиппины
Производство: New Treasurer Films Co. Ltd.
Жанр: боевик, криминал, боевые искусства
Продолжительность: 01:36:00
Перевод: Авторский (одноголосый, закадровый) Кашкин
Режиссер: Юэнь Бун / Yuen Bun, Алан Чуи / Alan Chui
В ролях: Синтия Кхан, Юэнь Бяо, Уайз Ли, Там Сук Муй, Монсор Дель Розарио, Билли Чоу, Алекс Ман, Юэнь Ва, Джерри Бэйли, Алан Чуй, Питер Чан Лунг, Шум Вай, Дэвид Лам Вай, Вонг Нгок Ва, Леунг Шун Йин....
Описание: Двое полицейских из Гонконга: инспектор Ли (Юэнь Бяо) и капитан Юнь (Синтия Кхан), через девушку из мафии внедряются в банду фальшивомонетчиков. Их цель - уничтожить неприступную базу по производству поддельных купюр...
Автор релиза:
Качество видео: DVDRip [DVD5]
Формат файла: AVI
Видео: 720x400, 23.976 fps, MPEG-4 Visual, 2041 kbps
Аудио: 48 kHz, MP3, 2 ch, 128 kbps [Русский]

MediaInfo

General
Format : AVI
Format/Info : Audio Video Interleave
File size : 1.46 GiB
Duration : 1h 35mn
Overall bit rate : 2 178 Kbps
Writing application : VirtualDubMod 1.5.10.3 (build 2550/release)
Writing library : VirtualDubMod build 2550/release
Video
ID : 0
Format : MPEG-4 Visual
Format profile : Advanced Simple@L5
Format settings, BVOP : 2
Format settings, QPel : No
Format settings, GMC : No warppoints
Format settings, Matrix : Default (MPEG)
Codec ID : XVID
Codec ID/Hint : XviD
Duration : 1h 35mn
Bit rate : 2 041 Kbps
Width : 720 pixels
Height : 400 pixels
Display aspect ratio : 16:9
Frame rate : 23.976 fps
Color space : YUV
Chroma subsampling : 4:2:0
Bit depth : 8 bits
Scan type : Progressive
Compression mode : Lossy
Bits/(Pixel*Frame) : 0.296
Stream size : 1.37 GiB (94%)
Writing library : XviD 1.2.1 (UTC 2008-12-04)
Audio
ID : 1
Format : MPEG Audio
Format version : Version 1
Format profile : Layer 3
Codec ID : 55
Codec ID/Hint : MP3
Duration : 1h 35mn
Bit rate mode : Constant
Bit rate : 128 Kbps
Channel(s) : 2 channels
Sampling rate : 48.0 KHz
Compression mode : Lossy
Stream size : 87.8 MiB (6%)
Alignment : Aligned on interleaves
Interleave, duration : 42 ms (1.00 video frame)
Interleave, preload duration : 504 ms

Скриншот c названием фильма

Скриншоты

Скачать

Скачать торрент! Крутая красотка / Tough Beauty and the Sloppy Slop / Angry Sea Mighty Dragon / Mabangis na lungsod / No hoi wai lung (Юэнь Бун / Yuen Bun, Алан Чуи / Alan Chui) [1995 г., боевик, криминал, боевые искусства, DVDRip] AVO (Кашкин)

Как скачивать? · Что такое торрент? · Рейтинг и ограничения

Сайт не распространяет и не хранит электронные версии произведений, а лишь предоставляет доступ к создаваемому пользователями каталогу ссылок на торрент-файлы, которые содержат только списки хеш-сумм

[Профиль] [ЛС]
Показать сообщения:    
Ответить на тему

Текущее время: Сегодня 10:27

Часовой пояс: GMT + 4



Вы не можете начинать темы
Вы не можете отвечать на сообщения
Вы не можете редактировать свои сообщения
Вы не можете удалять свои сообщения
Вы не можете голосовать в опросах
Вы не можете прикреплять файлы к сообщениям
Вы не можете скачивать файлы