Финист – Ясный сокол (Геннадий Васильев) [1975, сказка, мюзикл, фэнтези, мелодрама, приключения, семейный, DVDRip] [Немецкий трансфер]

Ответить на тему
 
Автор Сообщение

user ®

Стаж: 7 лет 7 месяцев

Сообщений: 20008

Пост Пост: #1 от 23-Авг-2013 07:15

[Цитировать]

Финист – Ясный сокол- Год выпуска: 1975
Жанр: Сказка, мюзикл, фэнтези, мелодрама, приключения, семейный
Продолжительность: 01:14:46-Режиссер: Геннадий Васильев
В ролях: Вячеслав Воскресенский, Светлана Орлова, Михаил Кононов, Михаил Пуговкин, Людмила Хитяева, Георгий Вицин, Мария Барабанова, Гликерия Богданова-Чеснокова, Анна Строганова, Алексей Смирнов и др.-Описание: В стародавние времена жил на Руси пахарь, звали его Финист. Был он могучий богатырь, защищал отчизну от чужеземных захватчиков. Но однажды хитроумный прихвостень заморского царя заманил его в подземелье и заколдовал! Превратился богатырь в страшное чудище. А расколдовать его может только красна девица… Если она полюбит его в таком облике, он снова станет прежним Соколом! И тогда злым силам уж точно несдобровать!- -Качество видео: DVDRip
Формат видео: AVI
Видео: 656x272 (2.41:1), 25 fps, XviD build 73 ~1289 kbps avg, 0.29 bit/pixel
Аудио: 48 kHz, AC3 Dolby Digital, 1/0 (C) ch, ~96.00 kbps
Размер: 746.39 Mb ( 782 645 248 bytes ) 1/6 DVD

MediaInfo

Код:
General
Complete name : C:\FINIST_1975_R2\VIDEO_TS\Finist_Yasnyi_Sokol.1975.DVDRip.[R.G.Torrents.ru].avi
Format : AVI
Format/Info : Audio Video Interleave
File size : 746 MiB
Duration : 1h 14mn
Overall bit rate : 1 396 Kbps
Movie name : Финист - Ясный сокол (1975) - DVDRip by Juvelir
Writing application : VirtualDubMod 1.5.10.3 | www.virtualdub-fr.org || (build 2550/release)
Video
ID : 0
Format : MPEG-4 Visual
Format profile : Advanced Simple@L5
Format settings, BVOP : 2
Format settings, QPel : No
Format settings, GMC : No warppoints
Format settings, Matrix : Default (MPEG)
Codec ID : XVID
Codec ID/Hint : XviD
Duration : 1h 14mn
Bit rate : 1 290 Kbps
Width : 656 pixels
Height : 272 pixels
Display aspect ratio : 2.40:1
Frame rate : 25.000 fps
Color space : YUV
Chroma subsampling : 4:2:0
Bit depth : 8 bits
Scan type : Progressive
Compression mode : Lossy
Bits/(Pixel*Frame) : 0.289
Stream size : 690 MiB (92%)
Writing library : XviD 73
Audio
ID : 1
Format : AC-3
Format/Info : Audio Coding 3
Mode extension : CM (complete main)
Format settings, Endianness : Big
Codec ID : 2000
Duration : 1h 14mn
Bit rate mode : Constant
Bit rate : 96.0 Kbps
Channel(s) : 1 channel
Channel positions : Front: C
Sampling rate : 48.0 KHz
Bit depth : 16 bits
Compression mode : Lossy
Stream size : 51.3 MiB (7%)
Alignment : Split accross interleaves
Interleave, duration : 40 ms (1.00 video frame)
Interleave, preload duration : 500 ms

Скриншоты


Скачать

Скачать торрент!

Как скачивать? · Что такое торрент? · Рейтинг и ограничения

Сайт не распространяет и не хранит электронные версии произведений, а лишь предоставляет доступ к создаваемому пользователями каталогу ссылок на торрент-файлы, которые содержат только списки хеш-сумм

[Профиль] [ЛС]
Показать сообщения:    
Ответить на тему

Текущее время: Сегодня 14:15

Часовой пояс: GMT + 4



Вы не можете начинать темы
Вы не можете отвечать на сообщения
Вы не можете редактировать свои сообщения
Вы не можете удалять свои сообщения
Вы не можете голосовать в опросах
Вы не можете прикреплять файлы к сообщениям
Вы не можете скачивать файлы