Новогодняя жена (Светлана Музыченко) [2012, Россия, комедия, WEB-DLRip]

Ответить на тему
 
Автор Сообщение

user ®

Стаж: 7 лет 7 месяцев

Сообщений: 20008

Пост Пост: #1 от 23-Авг-2013 04:05

[Цитировать]

Новогодняя жена«С кем новый год встретишь... С тем всю жизнь и проживёшь!»- Страна: Россия
Жанр: комедия
Год выпуска: 2012
Продолжительность: 01:32:58-Режиссер: Светлана Музыченко
В ролях: Сергей Перегудов, Карина Андоленко, Алёна Яковлева, Анна Донченко, Александр Арсентьев, Антон Васильев, Алексей Гришин-Описание: В самый разгар вечеринки в клубе Даша и Максим встречают друг друга...и просыпаются в одной постели... Решив, что их свела сама судьба, герои принимаются строить идеальные, «правильные» отношения и...подают заявление в ЗАГС, предварительно заключив пари: если в течение месяца им удастся не просто прожить вместе, но и сохранить чувство влюбленности, дело закончится свадьбой.
Максим с Дашей изо всех сил пытаются стать настоящей парой, хотя жизнь постоянно проверяет их отношения на прочность. А тут и оставленные в прошлом «пассии» тоже внезапно воспылали чувствами к отринутым «половинкам».
Героям предстоит пережить немало смешных, а порой драматичных ситуаций, прежде чем они поймут, есть ли действительно между ними то самое, ради чего все затевалось - любовь...-
-

Доп. Информация

Сценарий: Андрей Романов, Екатерина Григорьева, Марина Степнова
Продюсер: Анастасия Шипулина, Родион Павлючик, Игорь Марин
Оператор: Руслан Герасименков
Композитор: Игорь Холопов
Релиз на DVD: 26 февраля 2013, «Lizard Cinema Trade»
-Качество: WEB-DLRip
Контейнер: AVI
Видео: XviD, 720x400 (16:9), 1902 kbps, 25 fps, 0,264 bpp
Аудио: AC3 / 2.0 / 44 kHz / 192 kbps / 16 bit-

Media Info

General
Complete name : G:\Novogodnyaya.zhena.2012.WEBDLRip.1400Mb.avi
Format : AVI
Format/Info : Audio Video Interleave
File size : 1.37 GiB
Duration : 1h 32mn
Overall bit rate : 2 105 Kbps
Writing application : VirtualDubMod 1.5.10.3 | www.virtualdub-fr.org || (build 2550/release)
Writing library : VirtualDubMod build 2550/release
Video
ID : 0
Format : MPEG-4 Visual
Format profile : Advanced Simple@L5
Format settings, BVOP : 2
Format settings, QPel : No
Format settings, GMC : No warppoints
Format settings, Matrix : Default (MPEG)
Codec ID : XVID
Codec ID/Hint : XviD
Duration : 1h 32mn
Bit rate : 1 903 Kbps
Width : 720 pixels
Height : 400 pixels
Display aspect ratio : 16:9
Frame rate : 25.000 fps
Color space : YUV
Chroma subsampling : 4:2:0
Bit depth : 8 bits
Scan type : Progressive
Compression mode : Lossy
Bits/(Pixel*Frame) : 0.264
Stream size : 1.24 GiB (90%)
Writing library : XviD 1.2.1 (UTC 2008-12-04)
Audio
ID : 1
Format : AC-3
Format/Info : Audio Coding 3
Mode extension : CM (complete main)
Codec ID : 2000
Duration : 1h 32mn
Bit rate mode : Constant
Bit rate : 192 Kbps
Channel(s) : 2 channels
Channel positions : Front: L R
Sampling rate : 44.1 KHz
Bit depth : 16 bits
Compression mode : Lossy
Stream size : 128 MiB (9%)
Alignment : Split accross interleaves
Interleave, duration : 40 ms (1.00 video frame)
Interleave, preload duration : 500 ms

Скриншот с названием фильма

Скриншоты

Скачать

Скачать торрент!

Как скачивать? · Что такое торрент? · Рейтинг и ограничения

Сайт не распространяет и не хранит электронные версии произведений, а лишь предоставляет доступ к создаваемому пользователями каталогу ссылок на торрент-файлы, которые содержат только списки хеш-сумм

[Профиль] [ЛС]
Показать сообщения:    
Ответить на тему

Текущее время: Сегодня 21:57

Часовой пояс: GMT + 4



Вы не можете начинать темы
Вы не можете отвечать на сообщения
Вы не можете редактировать свои сообщения
Вы не можете удалять свои сообщения
Вы не можете голосовать в опросах
Вы не можете прикреплять файлы к сообщениям
Вы не можете скачивать файлы