Странствующий меченосец / The Wandering Swordsman / You xia er (Чжан Чэ / Chang Cheh) [1970, Гонконг, боевые искусства, драма, DVDRip] VO (Jet)

Ответить на тему
 
Автор Сообщение

user ®

Стаж: 11 лет

Сообщений: 15151

Пост Пост: #1 от 22-Авг-2013 00:25

[Цитировать]

Странствующий меченосец / The Wandering Swordsman / You xia er
Страна: Гонконг
Жанр: боевые искусства, драма
Год выпуска: 1970
Продолжительность: 01:43:20
Перевод: Одноголосый закадровый Jet
Cубтитры: нет
Режиссер: Чжан Чэ / Chang Cheh
В ролях: Дэвид Чианг, Лили Ли, Чжэн Лэй, Чжан Пэйшань, Ван Гуанъюй, У Ма, Чан Синг, Лю Ган, Хун Лю, Боло Йен, Дун Ли
Описание: Странствующий Меченосец бродит по свету и помогает людям, попавшим в беду. Многие считают его живым богом и слава о нём ходит по всей округе.В это же время шестеро негодяев решают ограбить охранный эскорт. Они понимают, что Странствующий Меченосец не даст им этого сделать и решают пойти на хитрость. Представившись шестью героями из Да Хэ, они уверяют меченосца, что эскорт везёт подкуп властям, а они намерены забрать эти деньги и помочь жителям близлежащих деревень, пострадавших от наводнения. Странствующий Меченосец помогает бандитам ограбить эскорт и отдаёт им все награбленные ценности. Очень скоро наш герой узнает, что его обманули и теперь он намерен вернуть похищенное и очистить своё честное имя... (В. Береговых)
Благодарность: За исходник, перевод, озвучивание и описание благодарность выражается Виктору Береговых (Jet).
Доп. информация: Рип с ремастированного DVD.
Сэмпл: http://multi-up.com/895977
Качество видео: DVDRip
Формат видео: AVI
Видео: 672x288 (2.33:1), 29.970 fps, XviD build 50 ~1829 kbps avg, 0.32 bit/pixel
Аудио: 48 kHz, AC3 Dolby Digital, 2/0 (L,R) ch, ~192 kbps

MediaInfo

Format : AVI
Format/Info : Audio Video Interleave
File size : 1,47 Гбайт
Duration : 1 ч. 43 м.
Overall bit rate : 2033 Кбит/сек
Writing application : VirtualDubMod 1.5.10.3 | www.virtualdub-fr.org || (build 2550/release)
Writing library : VirtualDubMod build 2550/release
Видео
ID : 0
Format : MPEG-4 Visual
Format profile : Advanced Simple@L5
Format settings, BVOP : 2
Format settings, QPel : Нет
Format settings, GMC : Без точки перехода
Format settings, Matrix : Default (MPEG)
Codec ID : XVID
Codec ID/Hint : XviD
Duration : 1 ч. 43 м.
Bit rate : 1829 Кбит/сек
Width : 672 пикселя
Height : 288 пикселей
Display aspect ratio : 2,35:1
Frame rate : 29,970 кадров/сек
Color space : YUV
Chroma subsampling : 4:2:0
Bit depth : 8 бит
Scan type : Прогрессивная
Compression mode : С потерями
Bits/(Pixel*Frame) : 0.315
Stream size : 1,32 Гбайт (90%)
Writing library : XviD 1.2.1 (UTC 2008-12-04)
Аудио
ID : 1
Format : AC-3
Format/Info : Audio Coding 3
Mode extension : CM (complete main)
Format settings, Endianness : Big
Codec ID : 2000
Duration : 1 ч. 43 м.
Bit rate mode : Постоянный
Bit rate : 192 Кбит/сек
Channel(s) : 2 канала
Channel positions : Front: L R
Sampling rate : 48,0 КГц
Bit depth : 16 бит
Compression mode : С потерями
Stream size : 142 Мбайт (9%)
Alignment : Разделение по промежуткам
Interleave, duration : 33 мс. (1,00 видеокадр)
Interleave, preload duration : 500 мс.

Скриншот c названием фильма

Скриншоты

Скачать

Скачать торрент! Странствующий меченосец / The Wandering Swordsman / You xia er (Чжан Чэ / Chang Cheh) [1970, Гонконг, боевые искусства, драма, DVDRip] VO (Jet)

Как скачивать? · Что такое торрент? · Рейтинг и ограничения

Сайт не распространяет и не хранит электронные версии произведений, а лишь предоставляет доступ к создаваемому пользователями каталогу ссылок на торрент-файлы, которые содержат только списки хеш-сумм

[Профиль] [ЛС]
Показать сообщения:    
Ответить на тему

Текущее время: Сегодня 12:31

Часовой пояс: GMT + 4



Вы не можете начинать темы
Вы не можете отвечать на сообщения
Вы не можете редактировать свои сообщения
Вы не можете удалять свои сообщения
Вы не можете голосовать в опросах
Вы не можете прикреплять файлы к сообщениям
Вы не можете скачивать файлы