Путь к новой жизни / Jaagruti (Суреш Кришна / Suresh Krishna) [1993, Индия, Боевик, DVDRip] DVO

Ответить на тему
 
Автор Сообщение

user ®

Стаж: 12 лет

Сообщений: 15125

Пост Пост: #1 от 22-Авг-2013 00:25

[Цитировать]

Путь к новой жизни / Jaagruti
-Страна: Индия
Жанр: Боевик
Год выпуска: 1993
Продолжительность: 02:14:00-Язык: Хинди
Перевод: Профессиональный (двухголосый, закадровый) - Элегия-фильм
Cубтитры: Нет-Режиссер: Суреш Кришна / Suresh Krishna-В ролях: Салман Кхан, Каришма Капур, Ашок Сараф, Прем Чопра, Раза Мурад-Описание: В городе, где закон потерял свою силу, и анархия вступила в права, жизнь простых людей превращается в ад. Главе района Севалалу и его сообщникам на руку то, что люди чувствуют себя незащищенными. Жажда власти и безмерная алчность движут этими людьми и для достижения своих целей они готовы на жестокие преступления. Но на их пути встают благородные и смелые люди, как офицер таможни Вишал, его жена Джоти и ее брат Джугну. Они способны противостоять злу и избавить людей от обрушившихся несчастий.-- | Кинопоиск--Качество видео: DVDRip
Исходник: DVD9 R1
Формат видео: AVI-Видео: XviD, 640x352, 23.976 fps, 1414 Kbps
Аудио: MP3, 44.1 kHz, 2.0 stereo, 128 Kbps--Риппер, синхронизация звука: soso4eg-
-

Скриншоты с названием


-

-

MI

Общее
Полное имя : H:\[Релизы]\[DVDRip]\Put.K.Novoy.Zhizni.1993.DVDRip.XviD.soso4eg.avi
Формат : AVI
Формат/Информация : Audio Video Interleave
Размер файла : 1,46 Гбайт
Продолжительность : 2 ч. 14 м.
Общий поток : 1552 Кбит/сек
Название фильма : Put.K.Novoy.Zhizni.1993.DVDRip.XviD.soso4eg
Режиссёр : soso4eg
Программа кодирования : VirtualDubMod 1.5.10.3 | www.virtualdub-fr.org || (build 2550/release)
Правообладатель : ***
Видео
Идентификатор : 0
Формат : MPEG-4 Visual
Профиль формата : Advanced Simple@L5
Параметр BVOP формата : 2
Параметр QPel формата : Нет
Параметр GMC формата : Без точки перехода
Параметр матрицы формата : Default (H.263)
Идентификатор кодека : XVID
Идентификатор кодека/Подсказка : XviD
Продолжительность : 2 ч. 14 м.
Битрейт : 1414 Кбит/сек
Ширина : 640 пикселей
Высота : 352 пикселя
Соотношение сторон : 16:9
Частота кадров : 25,000 кадров/сек
Цветовое пространство : YUV
Субдискретизация насыщенности : 4:2:0
Битовая глубина : 8 бит
Тип развёртки : Прогрессивная
Метод сжатия : С потерями
Бит/(Пиксели*Кадры) : 0.251
Размер потока : 1,33 Гбайт (91%)
Библиотека кодирования : XviD 1.2.1 (UTC 2008-12-04)
Аудио
Идентификатор : 1
Формат : MPEG Audio
Версия формата : Version 1
Профиль формата : Layer 3
Идентификатор кодека : 55
Идентификатор кодека/Подсказка : MP3
Продолжительность : 2 ч. 14 м.
Вид битрейта : Постоянный
Битрейт : 128 Кбит/сек
Каналы : 2 канала
Частота : 44,1 КГц
Метод сжатия : С потерями
Размер потока : 123 Мбайт (8%)
Выравнивание : Разделение по промежуткам
Продолжительность промежутка : 40 мс. (1,00 видеокадр)
Время предзагрузки промежутка : 500 мс.
Скачать

Скачать торрент! Путь к новой жизни / Jaagruti (Суреш Кришна / Suresh Krishna) [1993, Индия, Боевик, DVDRip] DVO

Как скачивать? · Что такое торрент? · Рейтинг и ограничения

Сайт не распространяет и не хранит электронные версии произведений, а лишь предоставляет доступ к создаваемому пользователями каталогу ссылок на торрент-файлы, которые содержат только списки хеш-сумм

[Профиль] [ЛС]
Показать сообщения:    
Ответить на тему

Текущее время: Сегодня 01:09

Часовой пояс: GMT + 4



Вы не можете начинать темы
Вы не можете отвечать на сообщения
Вы не можете редактировать свои сообщения
Вы не можете удалять свои сообщения
Вы не можете голосовать в опросах
Вы не можете прикреплять файлы к сообщениям
Вы не можете скачивать файлы