Элизиум: Рай не на Земле / Elysium (Нил Бломкамп / Neill Blomkamp) [2013, США, Боевик, Драма, Зарубежный фильм, Триллер, Фантаст, CamRip] Dub

Ответить на тему
 
Автор Сообщение

user ®

Стаж: 7 лет 7 месяцев

Сообщений: 20008

Пост Пост: #1 от 21-Авг-2013 18:05

[Цитировать]

Элизиум: Рай не на Земле / Elysium
Страна: США
Жанр: Боевик, Драма, Зарубежный фильм, Триллер, Фантаст
Год выпуска: 2013
Продолжительность: 01:49
Перевод: Профессиональный (дублированный)
Cубтитры: нет
Режиссер: Нил Бломкамп / Neill Blomkamp
В ролях: Мэтт Дэймон, Джоди Фостер, Уильям Фихтнер, Шарлто Копли, Алиси Брага, Диего Луна, Майкл Шэнкс, Талиса Сото, Карли Поуп, Фаран Таир
Описание: В 2159 году существует два класса людей: очень богатые, живущие на чистой, созданной руками человека, космической станции под названием Элизиум и остальные, живущие на перенаселённой разрушенной Земле. Безжалостный правительственный чиновник Министр Роудс не остановится ни перед чем для применения анти-иммиграционных законов и сохранения роскошного образа жизни граждан Элизиума. Когда неудачника Макса загоняют в угол, он соглашается взять на себя сложную миссию, которая в случае успеха не только спасёт ему жизнь, но и может привести к равенству этих поляризованных миров.
Качество видео: CamRip
Формат видео: AVI
Семпл: http://sendfile.su/855259
Видео: Видео кодек: XviD Видео: 624x232 (2.69:1), 24.000 fps, XviD build 50 ~808 kbps avg, 0.23 bit/pixel
Аудио: Аудио кодек: AC3 Аудио: 48 kHz, AC3 Dolby Digital, 2/0 (L,R) ch, ~192 kbps

MediaInfo

Формат : AVI
Формат/Информация : Audio Video Interleave
Размер файла : 701 Мбайт
Продолжительность : 1 ч. 36 м.
Общий поток : 1010 Кбит/сек
Программа кодирования : VirtualDubMod 1.5.10.3 | www.virtualdub-fr.org || (build 2550/release)
Библиотека кодирования : VirtualDubMod build 2550/release
Видео
Идентификатор : 0
Формат : MPEG-4 Visual
Профиль формата : Advanced Simple@L5
Параметр BVOP формата : 2
Параметр QPel формата : Нет
Параметр GMC формата : Без точки перехода
Параметр матрицы формата : Default (MPEG)
Идентификатор кодека : XVID
Идентификатор кодека/Подсказка : XviD
Продолжительность : 1 ч. 36 м.
Битрейт : 809 Кбит/сек
Ширина : 624 пикселя
Высота : 232 пикселя
Соотношение сторон : 2,690
Частота кадров : 24,000 кадра/сек
Цветовое пространство : YUV
Субдискретизация насыщенности : 4:2:0
Битовая глубина : 8 бит
Тип развёртки : Прогрессивная
Метод сжатия : С потерями
Бит/(Пиксели*Кадры) : 0.233
Размер потока : 561 Мбайт (80%)
Библиотека кодирования : XviD 1.2.1 (UTC 2008-12-04)
Аудио
Идентификатор : 1
Формат : AC-3
Формат/Информация : Audio Coding 3
Расширение режима : CM (complete main)
Параметр Endianness формата : Big
Идентификатор кодека : 2000
Продолжительность : 1 ч. 36 м.
Вид битрейта : Постоянный
Битрейт : 192 Кбит/сек
Каналы : 2 канала
Расположение каналов : Front: L R
Частота : 48,0 КГц
Битовая глубина : 16 бит
Метод сжатия : С потерями
Размер потока : 133 Мбайт (19%)
Выравнивание : Разделение по промежуткам
Продолжительность промежутка : 42 мс. (1,00 видеокадр)
Время предзагрузки промежутка : 500 мс.

Скриншот c названием фильма

Скриншоты



Скачать

Скачать торрент!

Как скачивать? · Что такое торрент? · Рейтинг и ограничения

Сайт не распространяет и не хранит электронные версии произведений, а лишь предоставляет доступ к создаваемому пользователями каталогу ссылок на торрент-файлы, которые содержат только списки хеш-сумм

[Профиль] [ЛС]
Показать сообщения:    
Ответить на тему

Текущее время: Сегодня 19:39

Часовой пояс: GMT + 4



Вы не можете начинать темы
Вы не можете отвечать на сообщения
Вы не можете редактировать свои сообщения
Вы не можете удалять свои сообщения
Вы не можете голосовать в опросах
Вы не можете прикреплять файлы к сообщениям
Вы не можете скачивать файлы