Пятерка супергероев / Super Buddies (Роберт Винс / Robert Vince) [2013, США, семейный, HDRip] Dub

Ответить на тему
 
Автор Сообщение

user ®

Стаж: 7 лет 7 месяцев

Сообщений: 20008

Пост Пост: #1 от 21-Авг-2013 18:05

[Цитировать]

Пятерка супергероев / Super Buddies
Страна: США
Жанр: семейный
Год выпуска: 2013
Продолжительность: 01:20:40
Перевод: Профессиональный (дублированный)
Cубтитры: нет
Оригинальная аудиодорожка: нет-Режиссер: Роберт Винс / Robert Vince
В ролях: Джон Ратценбергер, Майкл Тиган, Джейсон Эрлз, Тим Конуэй, Аттикус Шаффер, Элисон Стоунер, Купер Рот, Тай Паниц, Колин Хэнкс-Описание: Встречайте удивительных супергероев в веселом и увлекательном приключении для всей семьи от Disney. Обычный день на Ферме Фернфилда перестал быть скучным, когда Бутуз, Замараш, Би-Дог, Будда и Розабелла нашли загадочные кольца, наделившие наших героев уникальными суперспособностями. Вы и «гав» сказать не успеете, как отважные щенки окажутся втянуты в неравный бой с оборотнем-пришельцем из далекого космоса, угрожающим всей нашей планете. Но смогут ли верные друзья поставить злодея на место, не раскрыв при этом тайну своих суперспособностей? «Пятерка супергероев» — это фильм, полный юмора, приключений и очаровательных героев, который станет украшением вашей домашней коллекции. Бесстрашные друзья доказывают – если подходишь к делу с умом и играешь в команде, то не нужны никакие суперспособности, чтобы быть настоящим супергероем!-Доп. информация: премьера (мир) 8 августа 2013

-Качество видео: HDRip
Формат видео: AVI
Видео: 720x400 (16:9), 23.976 fps, XviD build 50 ~2046 kbps avg, 0.296 bit/pixel
Аудио: AC3, 384 Kb/s (6 ch)

MediaInfo

Общее
Полное имя : E:\Piaterka.Supergeroev.2013.D.HDRip.1400Mb.avi
Формат : AVI
Формат/Информация : Audio Video Interleave
Размер файла : 1,38 Гбайт
Продолжительность : 1 ч. 20 м.
Общий поток : 2440 Кбит/сек
Программа кодирования : VirtualDubMod 1.5.10.2 (build 2540/release)
Библиотека кодирования : VirtualDubMod build 2540/release
Видео
Идентификатор : 0
Формат : MPEG-4 Visual
Профиль формата : Advanced Simple@L5
Параметр BVOP формата : 2
Параметр QPel формата : Нет
Параметр GMC формата : Без точки перехода
Параметр матрицы формата : Default (H.263)
Идентификатор кодека : XVID
Идентификатор кодека/Подсказка : XviD
Продолжительность : 1 ч. 20 м.
Битрейт : 2047 Кбит/сек
Ширина : 720 пикселей
Высота : 400 пикселей
Соотношение сторон : 16:9
Частота кадров : 23,976 кадра/сек
Цветовое пространство : YUV
Субдискретизация насыщенности : 4:2:0
Битовая глубина : 8 бит
Тип развёртки : Прогрессивная
Метод сжатия : С потерями
Бит/(Пиксели*Кадры) : 0.296
Размер потока : 1,15 Гбайт (84%)
Библиотека кодирования : XviD 1.2.1 (UTC 2008-12-04)
Аудио
Идентификатор : 1
Формат : AC-3
Формат/Информация : Audio Coding 3
Расширение режима : CM (complete main)
Параметр Endianness формата : Big
Идентификатор кодека : 2000
Продолжительность : 1 ч. 20 м.
Вид битрейта : Постоянный
Битрейт : 384 Кбит/сек
Каналы : 6 каналов
Расположение каналов : Front: L C R, Side: L R, LFE
Частота : 48,0 КГц
Битовая глубина : 16 бит
Метод сжатия : С потерями
Размер потока : 222 Мбайт (16%)
Выравнивание : Разделение по промежуткам
Продолжительность промежутка : 42 мс. (1,00 видеокадр)
Время предзагрузки промежутка : 500 мс.

Скриншоты

Скачать

Скачать торрент!

Как скачивать? · Что такое торрент? · Рейтинг и ограничения

Сайт не распространяет и не хранит электронные версии произведений, а лишь предоставляет доступ к создаваемому пользователями каталогу ссылок на торрент-файлы, которые содержат только списки хеш-сумм

[Профиль] [ЛС]
Показать сообщения:    
Ответить на тему

Текущее время: Сегодня 18:08

Часовой пояс: GMT + 4



Вы не можете начинать темы
Вы не можете отвечать на сообщения
Вы не можете редактировать свои сообщения
Вы не можете удалять свои сообщения
Вы не можете голосовать в опросах
Вы не можете прикреплять файлы к сообщениям
Вы не можете скачивать файлы