Проказники в Чайнатауне / Chinatown Capers / Back Alley Princess in Chinatown / Xiao ying xiong da nao Tang Ren jie (Ло Вэй / Lo Wei) [1974, Гонконг, боевик, DVDRip] AVO (Сергей Кузнецов)

Ответить на тему
 
Автор Сообщение

user ®

Стаж: 11 лет

Сообщений: 15151

Пост Пост: #1 от 21-Авг-2013 14:55

[Цитировать]

Проказники в Чайнатауне / Chinatown Capers / Back Alley Princess in Chinatown / Xiao ying xiong da nao Tang Ren jie
Страна: Гонконг
Жанр: боевик
Год выпуска: 1974
Продолжительность: 01:46:15
Перевод: Авторский (одноголосый закадровый) Сергей Кузнецов
Cубтитры: нет
Режиссер: Ло Вэй / Lo Wei
В ролях: Полли Куан, Сэм Хуи, Сильвия Чан, Вонг Тао, Идемура Фуми, Памела Пак, Роджер
Описание: Наши два молодых героя, решили пойти на помощь полицейскому Лину, у которого красивая дочь Сильвия Лин исчезла в Сан-Франциско без следа, находят работу в качестве официантов в ресторане, принадлежащих китайским бизнесменам. Однако, вскоре они потеряют свою работу после запутывания с группой плюшевого мальчика от одного из уличных банд.
Благодарность: За исходник благодарность выражается шурик 555.
Сэмпл: http://multi-up.com/895857
Качество видео: DVDRip
Формат видео: AVI
Видео: 704x304 (2.32:1), 23.976 fps, XviD build 50 ~1773 kbps avg, 0.34 bit/pixel
Аудио: 48 kHz, AC3 Dolby Digital, 2/0 (L,R) ch, ~192 kbps

MediaInfo

Format : AVI
Format/Info : Audio Video Interleave
File size : 1,47 Гбайт
Duration : 1 ч. 46 м.
Overall bit rate : 1975 Кбит/сек
Writing application : VirtualDubMod 1.5.10.3 | www.virtualdub-fr.org || (build 2550/release)
Writing library : VirtualDubMod build 2550/release
Видео
ID : 0
Format : MPEG-4 Visual
Format profile : Advanced Simple@L5
Format settings, BVOP : 2
Format settings, QPel : Нет
Format settings, GMC : Без точки перехода
Format settings, Matrix : Default (MPEG)
Codec ID : XVID
Codec ID/Hint : XviD
Duration : 1 ч. 46 м.
Bit rate : 1774 Кбит/сек
Width : 704 пикселя
Height : 304 пикселя
Display aspect ratio : 2,35:1
Frame rate : 23,976 кадра/сек
Color space : YUV
Chroma subsampling : 4:2:0
Bit depth : 8 бит
Scan type : Прогрессивная
Compression mode : С потерями
Bits/(Pixel*Frame) : 0.346
Stream size : 1,32 Гбайт (90%)
Writing library : XviD 1.2.1 (UTC 2008-12-04)
Аудио
ID : 1
Format : AC-3
Format/Info : Audio Coding 3
Mode extension : CM (complete main)
Format settings, Endianness : Big
Codec ID : 2000
Duration : 1 ч. 46 м.
Bit rate mode : Постоянный
Bit rate : 192 Кбит/сек
Channel(s) : 2 канала
Channel positions : Front: L R
Sampling rate : 48,0 КГц
Bit depth : 16 бит
Compression mode : С потерями
Stream size : 146 Мбайт (10%)
Alignment : Разделение по промежуткам
Interleave, duration : 42 мс. (1,00 видеокадр)
Interleave, preload duration : 500 мс.

Скриншот c названием фильма

Скриншоты

Скачать

Скачать торрент! Проказники в Чайнатауне / Chinatown Capers / Back Alley Princess in Chinatown / Xiao ying xiong da nao Tang Ren jie (Ло Вэй / Lo Wei) [1974, Гонконг, боевик, DVDRip] AVO (Сергей Кузнецов)

Как скачивать? · Что такое торрент? · Рейтинг и ограничения

Сайт не распространяет и не хранит электронные версии произведений, а лишь предоставляет доступ к создаваемому пользователями каталогу ссылок на торрент-файлы, которые содержат только списки хеш-сумм

[Профиль] [ЛС]
Показать сообщения:    
Ответить на тему

Текущее время: Сегодня 09:59

Часовой пояс: GMT + 4



Вы не можете начинать темы
Вы не можете отвечать на сообщения
Вы не можете редактировать свои сообщения
Вы не можете удалять свои сообщения
Вы не можете голосовать в опросах
Вы не можете прикреплять файлы к сообщениям
Вы не можете скачивать файлы