Это Мумбай, дорогой! / Yeh Hai Mumbay Meri Jaan (Махеш Бхатт / Mahesh Bhatt) [1999, Индия, Комедия, DVDRip] MVO

Ответить на тему
 
Автор Сообщение

user ®

Стаж: 12 лет

Сообщений: 15124

Пост Пост: #1 от 21-Авг-2013 14:55

[Цитировать]

Это Мумбай, дорогой! / Yeh Hai Mumbay Meri Jaan
-Страна: Индия
Жанр: Комедия
Год выпуска: 1999
Продолжительность: 02:07:23-Язык: Хинди
Перевод: Профессиональный (многоголосый, закадровый) - Формат АВ (Zee TV)
Cубтитры: Нет-Режиссер: Махеш Бхатт / Mahesh Bhatt-В ролях: Саиф Али Кхан, Твинкл Кханна, Чанки Пандей, Саурабх Шукла, Акшай Ананд-Описание: Саиф Али Кхан играет образованного деревенского парня Раджу, который приезжает в темный и грязный город Мумбаи (т.е. Бомбей), где ему обещали хорошую работу бухгалтером. Его вещи крадут, машину тоже, он знакомится с автомобильным вором (Чанки Пандей) и теперь вынужден перебиваться с хлеба на воду. Есть также менеджер компании (Саурабх Шукла), у которого есть нехороший брат (Автар Гилл). Менеджер подозревает своих компаньонов в нечистоплотных делах и нанимает частного детектива (Акшай Ананд). Когда детектив не является на назначенную встречу, Раджу выдает себя за него и теперь он как бы раздваивается: сотрудничает с бандой автомобильных воров и следит за ними как детектив...-- | Кинопоиск--Качество видео: DVDRip
Исходник: DVD5 R1
Формат видео: AVI-Видео: XviD, 672x368, 23.976 fps, 1501 Kbps
Аудио: MP3, 44.1 kHz, 2.0 stereo, 128 Kbps--Риппер, синхронизация звука: soso4eg-- -
-

Скриншот с названием


-

Скриншоты


-

MI

Общее
Полное имя : C:\INDIYA\[Релизы]\Eto.Mumbay.dorogoy.1999.DVDRip.XviD.soso4eg.avi
Формат : AVI
Формат/Информация : Audio Video Interleave
Размер файла : 1,46 Гбайт
Продолжительность : 2 ч. 7 м.
Общий поток : 1638 Кбит/сек
Название фильма : Eto.Mumbay.dorogoy.1999.DVDRip.XviD.soso4eg
Программа кодирования : VirtualDubMod 1.5.10.3 | www.virtualdub-fr.org || (build 2550/release)
Видео
Идентификатор : 0
Формат : MPEG-4 Visual
Профиль формата : Advanced Simple@L5
Параметр BVOP формата : 2
Параметр QPel формата : Нет
Параметр GMC формата : Без точки перехода
Параметр матрицы формата : Default (MPEG)
Идентификатор кодека : XVID
Идентификатор кодека/Подсказка : XviD
Продолжительность : 2 ч. 7 м.
Битрейт : 1501 Кбит/сек
Ширина : 672 пикселя
Высота : 368 пикселей
Соотношение сторон : 1,85:1
Частота кадров : 23,976 кадра/сек
Цветовое пространство : YUV
Субдискретизация насыщенности : 4:2:0
Битовая глубина : 8 бит
Тип развёртки : Прогрессивная
Метод сжатия : С потерями
Бит/(Пиксели*Кадры) : 0.253
Размер потока : 1,34 Гбайт (92%)
Библиотека кодирования : XviD 1.2.1 (UTC 2008-12-04)
Аудио
Идентификатор : 1
Формат : MPEG Audio
Версия формата : Version 1
Профиль формата : Layer 3
Режим : Joint stereo
Расширение режима : MS Stereo
Идентификатор кодека : 55
Идентификатор кодека/Подсказка : MP3
Продолжительность : 2 ч. 7 м.
Вид битрейта : Постоянный
Битрейт : 128 Кбит/сек
Каналы : 2 канала
Частота : 44,1 КГц
Метод сжатия : С потерями
Размер потока : 117 Мбайт (8%)
Выравнивание : Разделение по промежуткам
Продолжительность промежутка : 42 мс. (1,00 видеокадр)
Время предзагрузки промежутка : 500 мс.
-
Скачать

Скачать торрент! Это Мумбай, дорогой! / Yeh Hai Mumbay Meri Jaan (Махеш Бхатт / Mahesh Bhatt) [1999, Индия, Комедия, DVDRip] MVO

Как скачивать? · Что такое торрент? · Рейтинг и ограничения

Сайт не распространяет и не хранит электронные версии произведений, а лишь предоставляет доступ к создаваемому пользователями каталогу ссылок на торрент-файлы, которые содержат только списки хеш-сумм

[Профиль] [ЛС]
Показать сообщения:    
Ответить на тему

Текущее время: Сегодня 21:12

Часовой пояс: GMT + 4



Вы не можете начинать темы
Вы не можете отвечать на сообщения
Вы не можете редактировать свои сообщения
Вы не можете удалять свои сообщения
Вы не можете голосовать в опросах
Вы не можете прикреплять файлы к сообщениям
Вы не можете скачивать файлы