Нарочно не придумаешь (Александр Хван) [2013, Беларусь, мелодрама, HDTV 1080i]

Ответить на тему
 
Автор Сообщение

user ®

Стаж: 7 лет 7 месяцев

Сообщений: 20008

Пост Пост: #1 от 21-Авг-2013 14:55

[Цитировать]

Нарочно не придумаешь. ( Эфир от 11.08.2013 ) Страна: Беларусь
Жанр: мелодрама
Год выпуска: 2013
Продолжительность: 01:44:39
Перевод: Не требуется
Cубтитры: нет
Режиссер: Александр Хван
В ролях: Елена Дробышева, Владислав Ветров, Игорь Денисов, Анна Маланкина, Сергей Жбанков, Татьяна Чердынцева
Описание:
Марине за 40, она работает портнихой в ателье и живет со взрослой дочкой Лерой, которую вырастила и воспитала одна. Мысленно поставив на себе крест, Марина не замечает, что в нее влюбляется клиент - солидный, но очень застенчивый бизнесмен Велигоров.
Подруга по ателье убеждает Марину, что Велигоров - идеальная пара для ее дочери. Озабоченная счастьем Леры, Марина делает все, чтобы устроить ее личную жизнь с бизнесменом, но сама в него влюбляется. Она не подозревает, что тот оказывает знаки внимания дочери лишь для того, чтобы понравиться ее маме.
Сама Лера влюбляется в помощника Велигорова - Артема. Она говорит маме, что встретила мужчину своей мечты. Марина уверена, что речь идет о Велигорове.
Казалось бы, нужен всего один шаг, чтобы распутать клубок этих забавных недоразумений, и тогда все герои любовного квартета будут счастливы… Но кто его сделает?

Доп. информация

Сценарий: Алексей Тагушев, Марианна Сокольская
Продюсер: Александр Кушаев, Владимир Игнатьев, Евгений Арендаревич
Оператор: Владимир Володин
Композитор: Игорь Щербаков
Сэмпл: http://multi-up.com/894821
Качество: HDTV 1080i
Контейнер: TS
Видео: AVC/H.264, 1920x1080 (16:9), 5724 Кбит/сек, 25.000 fps
Аудио: Mp-2, 48000 Hz, 192 Кбит/сек, 2 ch

MediaInfo

Видео
Идентификатор : 306 (0x132)
Идентификатор меню : 1 (0x1)
Формат : AVC
Формат/Информация : Advanced Video Codec
Профиль формата : High@L4.0
Параметр CABAC формата : Да
Параметр ReFrames формата : 3 кадра
Идентификатор кодека : 27
Продолжительность : 1 ч. 44 м.
Битрейт : 5724 Кбит/сек
Ширина : 1920 пикселей
Высота : 1080 пикселей
Соотношение сторон : 16:9
Частота кадров : 25,000 кадров/сек
Стандарт вещания : Component
Цветовое пространство : YUV
Субдискретизация насыщенности : 4:2:0
Битовая глубина : 8 бит
Тип развёртки : Чересстрочная
Порядок развёртки : Верхнее поле первое
Бит/(Пиксели*Кадры) : 0.110
Размер потока : 4,18 Гбайт (92%)
Основные цвета : BT.709
Характеристики трансфера : BT.709
Коэффициенты матрицы : BT.709
Аудио
Идентификатор : 406 (0x196)
Идентификатор меню : 1 (0x1)
Формат : MPEG Audio
Версия формата : Version 1
Профиль формата : Layer 2
Идентификатор кодека : 3
Продолжительность : 1 ч. 44 м.
Вид битрейта : Постоянный
Битрейт : 192 Кбит/сек
Каналы : 2 канала
Частота : 48,0 КГц
Метод сжатия : С потерями
Размер потока : 144 Мбайт (3%)

Скриншот c названием фильма

Скриншоты

Скачать

Скачать торрент!

Как скачивать? · Что такое торрент? · Рейтинг и ограничения

Сайт не распространяет и не хранит электронные версии произведений, а лишь предоставляет доступ к создаваемому пользователями каталогу ссылок на торрент-файлы, которые содержат только списки хеш-сумм

[Профиль] [ЛС]
Показать сообщения:    
Ответить на тему

Текущее время: Сегодня 06:26

Часовой пояс: GMT + 4



Вы не можете начинать темы
Вы не можете отвечать на сообщения
Вы не можете редактировать свои сообщения
Вы не можете удалять свои сообщения
Вы не можете голосовать в опросах
Вы не можете прикреплять файлы к сообщениям
Вы не можете скачивать файлы