Звездный крейсер Галактика: Атака сайлонов / Mission Galactica: The Cylon Attack (Винс Эдвардс / Vince Edwards, Кристиан Ай. Ниби 2 / Christian I. Nyby II) [1979, США, фантастика, HDTVRip 1080p] AVO (Горчаков) + Ger

Ответить на тему
 
Автор Сообщение

user ®

Стаж: 7 лет 7 месяцев

Сообщений: 20008

Пост Пост: #1 от 21-Авг-2013 14:55

[Цитировать]

Звездный крейсер Галактика: Атака сайлонов / Mission Galactica: The Cylon Attack
Страна: США
Жанр: фантастика
Год выпуска: 1979
Продолжительность: 01:42:29
Перевод: Авторский (одноголосый закадровый) Горчаков
Cубтитры: нет
Оригинальная аудиодорожка: английский
Режиссер: Винс Эдвардс / Vince Edwards, Кристиан Ай. Ниби 2 / Christian I. Nyby II
В ролях: Ричард Хэтч, Дирк Бенедикт, Лорн Грин, Херб Джефферсон мл., Джон Коликос, Марен Дженсен, Лоретт Спанг, Тони Шварц, Энн Локхарт, Терри Картер
Описание: Люди уже освоили Космос, покинули маленькую планету Земля, даже забыли дорогу к ней и создали огромные космические колонии, которые стали новым местом жительства всего человечества. После многолетней и кровопролитной войны со зловещей инопланетной Сайлонской империей, 12 колоний людей было уничтожено.
И лишь небольшой флотилии кораблей, находящейся под охраной боевого крейсера «Галактика», удаётся спастись от уничтожения цилонцами.
Доп. информация: Кинопрокат состоялся в США, Западной Европе и Японии.
[img]]http://imageban.ru/show/2013/08/21/dc7cc0c91731bb4b...437c8f/jpg[/img]
Сэмпл: http://sendfile.su/855459
Качество видео: HDTVRip-AVC
Формат видео: MKV
Видео: x264 7300 kbps 1400х1080 25 fps
Аудио: AC3 2 ch 48khz 192 kbps (русский)
Аудио 2: AC3 6 ch 48khz 384 kbps (немецкий)

MediaInfo

General
Unique ID : 253945486884988389170188835956583819415 (0xBF0C1F2A92F98D3098DFE71FBE87E897)
Complete name : C:\Documents and Settings\Admin\Мои документы\Mission Galactica The Cylon Attack 1979.x264.HDTVRip.1080p.mkv
Format : Matroska
Format version : Version 4 / Version 2
File size : 5.65 GiB
Duration : 1h 42mn
Overall bit rate : 7 891 Kbps
Movie name : Миссия Галактика: Атака Сайлонов / Mission Galactica: The Cylon Attack / 1979
Encoded date : UTC 2010-02-22 21:41:31
Writing application : mkvmerge v5.8.0 ('No Sleep / Pillow') built on Sep 30 2012 10:57:14
Writing library : libebml v1.3.0 + libmatroska v1.4.0
Attachment : Yes
Video
ID : 1
Format : AVC
Format/Info : Advanced Video Codec
Format profile : High@L4.1
Format settings, CABAC : Yes
Format settings, ReFrames : 5 frames
Codec ID : V_MPEG4/ISO/AVC
Duration : 1h 42mn
Bit rate : 7 300 Kbps
Width : 1 400 pixels
Height : 1 080 pixels
Display aspect ratio : 1.296
Frame rate mode : Constant
Frame rate : 25.000 fps
Color space : YUV
Chroma subsampling : 4:2:0
Bit depth : 8 bits
Scan type : Progressive
Bits/(Pixel*Frame) : 0.193
Stream size : 5.12 GiB (91%)
Writing library : x264 core 115 r1937 aa21558
Encoding settings : cabac=1 / ref=5 / deblock=1:-3:-3 / analyse=0x3:0x113 / me=umh / subme=10 / psy=0 / mixed_ref=1 / me_range=32 / chroma_me=1 / trellis=2 / 8x8dct=1 / cqm=0 / deadzone=21,11 / fast_pskip=1 / chroma_qp_offset=0 / threads=12 / sliced_threads=0 / nr=0 / decimate=1 / interlaced=0 / bluray_compat=0 / constrained_intra=0 / bframes=5 / b_pyramid=2 / b_adapt=2 / b_bias=0 / direct=3 / weightb=1 / open_gop=0 / weightp=2 / keyint=250 / keyint_min=25 / scenecut=40 / intra_refresh=0 / rc_lookahead=80 / rc=2pass / mbtree=1 / bitrate=7300 / ratetol=1.0 / qcomp=0.80 / qpmin=0 / qpmax=69 / qpstep=4 / cplxblur=20.0 / qblur=0.5 / ip_ratio=1.40 / aq=2:1.00
Language : English
Default : No
Forced : No
Audio #1
ID : 2
Format : AC-3
Format/Info : Audio Coding 3
Mode extension : CM (complete main)
Format settings, Endianness : Big
Codec ID : A_AC3
Duration : 1h 42mn
Bit rate mode : Constant
Bit rate : 192 Kbps
Channel(s) : 2 channels
Channel positions : Front: L R
Sampling rate : 48.0 KHz
Bit depth : 16 bits
Compression mode : Lossy
Stream size : 141 MiB (2%)
Title : Русский (В.Горчаков) VHS
Language : Russian
Default : No
Forced : No
Audio #2
ID : 3
Format : AC-3
Format/Info : Audio Coding 3
Mode extension : CM (complete main)
Format settings, Endianness : Big
Codec ID : A_AC3
Duration : 1h 42mn
Bit rate mode : Constant
Bit rate : 384 Kbps
Channel(s) : 6 channels
Channel positions : Front: L C R, Side: L R, LFE
Sampling rate : 48.0 KHz
Bit depth : 16 bits
Compression mode : Lossy
Stream size : 281 MiB (5%)
Language : German
Default : No
Forced : No

Скриншоты

Скачать

Скачать торрент!

Как скачивать? · Что такое торрент? · Рейтинг и ограничения

Сайт не распространяет и не хранит электронные версии произведений, а лишь предоставляет доступ к создаваемому пользователями каталогу ссылок на торрент-файлы, которые содержат только списки хеш-сумм

[Профиль] [ЛС]
Показать сообщения:    
Ответить на тему

Текущее время: Сегодня 16:35

Часовой пояс: GMT + 4



Вы не можете начинать темы
Вы не можете отвечать на сообщения
Вы не можете редактировать свои сообщения
Вы не можете удалять свои сообщения
Вы не можете голосовать в опросах
Вы не можете прикреплять файлы к сообщениям
Вы не можете скачивать файлы