Статья 99 / Article 99 (Ховард Дойч / Howard Deutch) [1992, США, драма, комедия, HDTV 1080i] DVO (НТВ+) + Original Eng

Ответить на тему
 
Автор Сообщение

user ®

Стаж: 7 лет 7 месяцев

Сообщений: 20008

Пост Пост: #1 от 21-Авг-2013 11:45

[Цитировать]

Статья 99 / Article 99
Страна: США
Студия: Orion Pictures Corporation
Жанр: драма, комедия
Год выпуска: 1992
Продолжительность: 01:36:17
Перевод: Профессиональный (двухголосый закадровый) НТВ+
Cубтитры: нет
Оригинальная аудиодорожка: английский
Режиссер: Ховард Дойч / Howard Deutch
В ролях: Рэй Лиотта, Форест Уитэкер, Кифер Сазерленд, Леа Томпсон, Джон С. МакГинли, Джон Махоуни, Кит Дэвид, Кэти Бэйкер, Эли Уоллак, Ноубл Уиллингэм, Линн Тигпен, Джеффри Тэмбор
Описание: Группа врачей военного теперь госпиталя, сталкивается с безвыходным положением, обусловленным конфликтом между правилами, заведенными в госпитале и их решимостью дать такое высококачественное лечение, на которое они способны даже, если это противоречит заведенным порядкам (прямое действие СТАТЬИ 99)

Тип релиза: HDTV 1080i
Контейнер: MKV
Видео: AVC 1920x1080 (16:9)) 25.0fps Bit rate 7175 Kbps
Аудио 1: MP2 48.0 KHz 2ch. 192kbps rus
Аудио 2: AC3 48.0 KHz 2ch. 192kbps eng

MediaInfo

General
Complete name : E:\torrent\Statya 99_HDTV 1080i.mkv
Format : Matroska
File size : 5.19 GiB
Duration : 1h 36mn
Overall bit rate : 7 712 Kbps
Encoded date : UTC 2013-08-20 07:32:08
Writing application : mkvmerge v5.7.0 ('The Whirlwind') built on Jul 8 2012 20:08:51
Writing library : libebml v1.2.3 + libmatroska v1.3.0
Video
ID : 1
Format : AVC
Format/Info : Advanced Video Codec
Format profile : High@L4.0
Format settings, CABAC : Yes
Format settings, ReFrames : 3 frames
Format settings, GOP : M=1, N=64
Muxing mode : Container profile=Unknown@4.0
Codec ID : V_MPEG4/ISO/AVC
Duration : 1h 36mn
Bit rate : 7 175 Kbps
Width : 1 920 pixels
Height : 1 080 pixels
Display aspect ratio : 16:9
Frame rate : 50.000 fps
Original frame rate : 25.000 fps
Standard : Component
Color space : YUV
Chroma subsampling : 4:2:0
Bit depth : 8 bits
Scan type : Interlaced
Scan order : Top Field First
Bits/(Pixel*Frame) : 0.069
Stream size : 4.83 GiB (93%)
Title : Statya 99_HDTV1080i
Color primaries : BT.709-5, BT.1361, IEC 61966-2-4, SMPTE RP177
Transfer characteristics : BT.709-5, BT.1361
Matrix coefficients : BT.709-5, BT.1361, IEC 61966-2-4 709, SMPTE RP177
Audio #1
ID : 2
Format : MPEG Audio
Format version : Version 1
Format profile : Layer 2
Codec ID : A_MPEG/L2
Codec ID/Hint : MP2
Duration : 1h 36mn
Bit rate mode : Constant
Bit rate : 192 Kbps
Channel(s) : 2 channels
Sampling rate : 48.0 KHz
Stream size : 132 MiB (2%)
Title : Statya 99_MP2_DVO_NTV+
Language : Russian
Audio #2
ID : 3
Format : AC-3
Format/Info : Audio Coding 3
Mode extension : CM (complete main)
Codec ID : A_AC3
Duration : 1h 36mn
Bit rate mode : Constant
Bit rate : 192 Kbps
Channel(s) : 2 channels
Channel positions : Front: L R
Sampling rate : 48.0 KHz
Bit depth : 16 bits
Stream size : 132 MiB (2%)
Title : Statya 99_AC3_original eng

Скриншот с названием фильма

Скриншоты


Скачать

Скачать торрент!

Как скачивать? · Что такое торрент? · Рейтинг и ограничения

Сайт не распространяет и не хранит электронные версии произведений, а лишь предоставляет доступ к создаваемому пользователями каталогу ссылок на торрент-файлы, которые содержат только списки хеш-сумм

[Профиль] [ЛС]
Показать сообщения:    
Ответить на тему

Текущее время: Сегодня 18:11

Часовой пояс: GMT + 4



Вы не можете начинать темы
Вы не можете отвечать на сообщения
Вы не можете редактировать свои сообщения
Вы не можете удалять свои сообщения
Вы не можете голосовать в опросах
Вы не можете прикреплять файлы к сообщениям
Вы не можете скачивать файлы