Пассажир 57 / Passenger 57 (Кевин Хукс / Kevin Hooks) [1992, США, Боевик, триллер, BDRip 1080p] Dub (Мост Видео) + Dub (Варус-видео) + DVO (НТВ / ТНТ) + AVO (Гаврилов) + Sub Rus + Original Eng

Ответить на тему
 
Автор Сообщение

user ®

Стаж: 7 лет 7 месяцев

Сообщений: 20008

Пост Пост: #1 от 21-Авг-2013 05:25

[Цитировать]

Пассажир 57 / Passenger 57
Страна: США
Жанр: Боевик, триллер
Год выпуска: 1992
Продолжительность: 01:23:44
Перевод: Профессиональный (дублированный) Мост Видео
Перевод 2: Профессиональный (дублированный) Варус-видео
Перевод 3: Профессиональный (двухголосый закадровый) НТВ / ТНТ
Перевод 4: Авторский (одноголосый закадровый) Гаврилов
Cубтитры: русские,английские
Оригинальная аудиодорожка: английский
Режиссер: Кевин Хукс / Kevin Hooks
В ролях: Уэсли Снайпс, Брюс Пэйн, Том Сайзмор, Алекс Дэтчер, Брюс Гринвуд, Роберт Хукс, Элизабет Херли, Майкл Хорс, Марк Маколей, Эрни Лайвли
Описание: Чарльз Рейн — безжалостный и неистовый убийца-террорист. Джон Каттер — хладнокровный полицейский из службы безопасности авиакомпании. Схватка хорошего и плохого парней начинается в воздухе, затем продолжится на земле…
сэмпел
Автор рипа:REIKO1992
Тип релиза: BDRip 1080p
Контейнер: MKV
Видео: 1920x800, ~12000 kbps, 23.976 fps
Аудио: Russian DD 5.1 48 kHz 384 kbps |Дубляж, Мост Видео|
Аудио 2: Russian: 48 kHz, AC3, 2/0 (L,R) ch, ~192.00 kbps avg |Дубляж, Варус Видео|
Аудио 3: Russian: 48 kHz, AC3, 2/0 (L,R) ch, ~192.00 kbps avg |Двухголосый закадровый, НТВ / ТНТ|
Аудио 4: Russian: 48 kHz, AC3, 6/0 (L,R) ch, ~448.00 kbps avg (авторский одноголосый, Гаврилов);
Аудио 5: Russian: 48 kHz, AC3, 2/0 (L,R) ch, ~192.00 kbps avg |многолосый ТВ3|
Аудио 6: Russian: 48 kHz, AC3, 2/0 (L,R) ch, ~192.00 kbps avg (авторский одноголосый, Горчаков);
Аудио 7: English: 48 kHz, AC3, 6/0 (L,R) ch, ~448.00 kbps avg

MediaInfo

Общее
Уникальный идентификатор : 201029852355594757030625377058499158064 (0x973CF0F4E41195A68BCA636C455D6030)
Полное имя : C:\Users\к\Desktop\Passenger 57 (1992)\Passenger.57.1992.x264.BluRay.1080p.mkv
Формат : Matroska
Версия формата : Version 2
Размер файла : 8,19 Гбайт
Продолжительность : 1 ч. 23 м.
Режим общего битрейта : Переменный
Общий поток : 14,0 Мбит/сек
Название фильма : Passenger 57 (1992)
Дата кодирования : UTC 2013-08-20 03:56:50
Программа кодирования : mkvmerge v5.7.0 ('The Whirlwind') built on Jul 29 2012 15:12:35
Библиотека кодирования : libebml v1.2.3 + libmatroska v1.3.0
Видео
Идентификатор : 1
Формат : AVC
Формат/Информация : Advanced Video Codec
Профиль формата : High@L4.1
Параметр CABAC формата : Да
Параметр ReFrames формата : 4 кадра
Идентификатор кодека : V_MPEG4/ISO/AVC
Продолжительность : 1 ч. 23 м.
Вид битрейта : Переменный
Битрейт : 12,0 Мбит/сек
Максимальный битрейт : 14,0 Мбит/сек
Ширина : 1920 пикселей
Высота : 800 пикселей
Соотношение сторон : 2,40:1
Режим частоты кадров : Постоянный
Частота кадров : 23,976 кадра/сек
Цветовое пространство : YUV
Субдискретизация насыщенности : 4:2:0
Битовая глубина : 8 бит
Тип развёртки : Прогрессивная
Бит/(Пиксели*Кадры) : 0.326
Размер потока : 6,83 Гбайт (83%)
Библиотека кодирования : x264 core 133 r2334 a3ac64b
Настройки программы : cabac=1 / ref=5 / deblock=1:-1:-1 / analyse=0x3:0x133 / me=tesa / subme=11 / psy=1 / psy_rd=1.00:0.15 / mixed_ref=1 / me_range=24 / chroma_me=1 / trellis=2 / 8x8dct=1 / cqm=0 / deadzone=21,11 / fast_pskip=0 / chroma_qp_offset=-3 / threads=12 / lookahead_threads=1 / sliced_threads=0 / slices=4 / nr=0 / decimate=1 / interlaced=0 / bluray_compat=1 / constrained_intra=0 / bframes=3 / b_pyramid=1 / b_adapt=1 / b_bias=0 / direct=3 / weightb=1 / open_gop=1 / weightp=1 / keyint=230 / keyint_min=1 / scenecut=40 / intra_refresh=0 / rc_lookahead=60 / rc=2pass / mbtree=1 / bitrate=11999 / ratetol=1.0 / qcomp=0.60 / qpmin=0 / qpmax=69 / qpstep=4 / cplxblur=20.0 / qblur=0.5 / vbv_maxrate=14000 / vbv_bufsize=14000 / nal_hrd=vbr / ip_ratio=1.40 / aq=1:1.00
Язык : English
Default : Да
Forced : Нет
Аудио #1
Идентификатор : 2
Формат : AC-3
Формат/Информация : Audio Coding 3
Расширение режима : CM (complete main)
Параметр Endianness формата : Big
Идентификатор кодека : A_AC3
Продолжительность : 1 ч. 23 м.
Вид битрейта : Постоянный
Битрейт : 384 Кбит/сек
Каналы : 6 каналов
Расположение каналов : Front: L C R, Side: L R, LFE
Частота : 48,0 КГц
Битовая глубина : 16 бит
Метод сжатия : С потерями
Размер потока : 230 Мбайт (3%)
Заголовок : Дублированный (Мост Видео)
Язык : Russian
Default : Да
Forced : Нет
Аудио #2
Идентификатор : 3
Формат : AC-3
Формат/Информация : Audio Coding 3
Расширение режима : CM (complete main)
Параметр Endianness формата : Big
Идентификатор кодека : A_AC3
Продолжительность : 1 ч. 23 м.
Вид битрейта : Постоянный
Битрейт : 192 Кбит/сек
Каналы : 2 канала
Расположение каналов : Front: L R
Частота : 48,0 КГц
Битовая глубина : 16 бит
Метод сжатия : С потерями
Размер потока : 115 Мбайт (1%)
Заголовок : Дублированный (Варус-видео)
Язык : Russian
Default : Нет
Forced : Нет
Аудио #3
Идентификатор : 4
Формат : AC-3
Формат/Информация : Audio Coding 3
Расширение режима : CM (complete main)
Параметр Endianness формата : Big
Идентификатор кодека : A_AC3
Продолжительность : 1 ч. 23 м.
Вид битрейта : Постоянный
Битрейт : 192 Кбит/сек
Каналы : 2 канала
Расположение каналов : Front: L R
Частота : 48,0 КГц
Битовая глубина : 16 бит
Метод сжатия : С потерями
Размер потока : 115 Мбайт (1%)
Заголовок : Профессиональный (двухголосый, закадровый) НТВ- эфир канала ТНТ 12.09.2011
Язык : Russian
Default : Нет
Forced : Нет
Аудио #4
Идентификатор : 5
Формат : AC-3
Формат/Информация : Audio Coding 3
Расширение режима : CM (complete main)
Параметр Endianness формата : Big
Идентификатор кодека : A_AC3
Продолжительность : 1 ч. 23 м.
Вид битрейта : Постоянный
Битрейт : 448 Кбит/сек
Каналы : 6 каналов
Расположение каналов : Front: L C R, Side: L R, LFE
Частота : 48,0 КГц
Битовая глубина : 16 бит
Метод сжатия : С потерями
Размер потока : 268 Мбайт (3%)
Заголовок : AC3 5.1 48 kHz 448 kbps AVO (Гаврилов)
Язык : Russian
Default : Нет
Forced : Нет
Аудио #5
Идентификатор : 6
Формат : AC-3
Формат/Информация : Audio Coding 3
Расширение режима : CM (complete main)
Параметр Endianness формата : Big
Идентификатор кодека : A_AC3
Продолжительность : 1 ч. 23 м.
Вид битрейта : Постоянный
Битрейт : 192 Кбит/сек
Каналы : 2 канала
Расположение каналов : Front: L R
Частота : 48,0 КГц
Битовая глубина : 16 бит
Метод сжатия : С потерями
Размер потока : 115 Мбайт (1%)
Заголовок : Мнгоголосый, ТВ-3
Язык : Russian
Default : Нет
Forced : Нет
Аудио #6
Идентификатор : 7
Формат : AC-3
Формат/Информация : Audio Coding 3
Расширение режима : CM (complete main)
Параметр Endianness формата : Big
Идентификатор кодека : A_AC3
Продолжительность : 1 ч. 23 м.
Вид битрейта : Постоянный
Битрейт : 192 Кбит/сек
Каналы : 2 канала
Расположение каналов : Front: L R
Частота : 48,0 КГц
Битовая глубина : 16 бит
Метод сжатия : С потерями
Размер потока : 115 Мбайт (1%)
Заголовок : Авторский, Горчаков
Язык : Russian
Default : Нет
Forced : Нет
Аудио #7
Идентификатор : 8
Формат : AC-3
Формат/Информация : Audio Coding 3
Расширение режима : CM (complete main)
Параметр Endianness формата : Big
Идентификатор кодека : A_AC3
Продолжительность : 1 ч. 23 м.
Вид битрейта : Постоянный
Битрейт : 448 Кбит/сек
Каналы : 6 каналов
Расположение каналов : Front: L C R, Side: L R, LFE
Частота : 48,0 КГц
Битовая глубина : 16 бит
Метод сжатия : С потерями
Размер потока : 268 Мбайт (3%)
Заголовок : AC3 5.1 48 kHz 448 kbps
Язык : English
Default : Нет
Forced : Нет
Текст #1
Идентификатор : 9
Формат : UTF-8
Идентификатор кодека : S_TEXT/UTF8
Идентификатор кодека/Информация : UTF-8 Plain Text
Заголовок : Russian
Язык : Russian
Default : Нет
Forced : Нет
Текст #2
Идентификатор : 10
Формат : UTF-8
Идентификатор кодека : S_TEXT/UTF8
Идентификатор кодека/Информация : UTF-8 Plain Text
Заголовок : English
Язык : English
Default : Нет
Forced : Нет
Меню
00:00:00.000 : en:00:00:00.000
00:09:55.470 : en:00:09:55.470
00:19:39.720 : en:00:19:39.720
00:29:12.584 : en:00:29:12.584
00:39:04.801 : en:00:39:04.801
00:49:26.088 : en:00:49:26.088
00:59:28.023 : en:00:59:28.023
01:10:21.050 : en:01:10:21.050
01:20:38.667 : en:01:20:38.667

Скриншоты

Скачать

Скачать торрент!

Как скачивать? · Что такое торрент? · Рейтинг и ограничения

Сайт не распространяет и не хранит электронные версии произведений, а лишь предоставляет доступ к создаваемому пользователями каталогу ссылок на торрент-файлы, которые содержат только списки хеш-сумм

[Профиль] [ЛС]
Показать сообщения:    
Ответить на тему

Текущее время: Сегодня 18:28

Часовой пояс: GMT + 4



Вы не можете начинать темы
Вы не можете отвечать на сообщения
Вы не можете редактировать свои сообщения
Вы не можете удалять свои сообщения
Вы не можете голосовать в опросах
Вы не можете прикреплять файлы к сообщениям
Вы не можете скачивать файлы