42 / 42 (Брайан Хелгеленд / Brian Helgeland) [2013, США, драма, биография, спорт, BDRip 1080p] MVO + 5x Sub (Rus, Ukr, Eng) + Original Eng

Ответить на тему
 
Автор Сообщение

user ®

Стаж: 7 лет 7 месяцев

Сообщений: 20008

Пост Пост: #1 от 20-Авг-2013 23:10

[Цитировать]

42 / 42
Страна: США
Жанр: драма, биография, спорт
Год выпуска: 2013
Продолжительность: 02:08:15
Перевод: Профессиональный (многоголосый закадровый)
Cубтитры: русские (Forced, Full), украинские (Full), английские (Forced, Full [SDH/COLOR])
Оригинальная аудиодорожка: английский
-
Режиссер: Брайан Хелгеленд / Brian Helgeland
В ролях: Харрисон Форд, Чэдвик Боузман, Николь Бихери, Кристофер Мелони, Райан Мерриман, Лукас Блэк, Андре Холлэнд, Алан Тьюдик, Хамиш Линклэйтер, Т.Р. Найт
-
Описание: Фильм посвящен тому, как Брэнч Рики и Джеки Робинсон уничтожили сегрегацию в бейсболе в 1947 году.
За русский звук благодарность DGEKIGAN
Тип релиза: BDRip 1080p
Контейнер: MKV
Видео: H264 / NTSC 16:9 / 1920x800 (2,40:1) / 9199 kbps / 23,976 fps / 0.250 bit/pixel / High@L4.1
Аудио 1: Russian / AC3 / 48 kHz / 2 Ch / 192 kbps / 16 bit / MVO
Аудио 2: English / DTS / 48 kHz / 5.1 Ch / 1510 kbps / 24 bit / Original
Формат субтитров: softsub (SRT)
Навигация по главам: есть

MediaInfo

Общее
Уникальный идентификатор : 173238354086720284863362338446986586145 (0x82547E4D2E7B9728BA8587DD58B62821)
Полное имя : W:\BDRip 1080p\42.2013.BDRip.1080p.mkv
Формат : Matroska
Версия формата : Version 4 / Version 2
Размер файла : 9,76 Гбайт
Продолжительность : 2 ч. 8 м.
Общий поток : 10,9 Мбит/сек
Дата кодирования : UTC 2013-08-20 18:16:48
Программа кодирования : mkvmerge v6.3.0 ('You can't stop me!') built on Jun 28 2013 20:09:41
Библиотека кодирования : libebml v1.3.0 + libmatroska v1.4.0
Видео
Идентификатор : 1
Формат : AVC
Формат/Информация : Advanced Video Codec
Профиль формата : High@L4.1
Параметр CABAC формата : Да
Параметр ReFrames формата : 5 кадров
Идентификатор кодека : V_MPEG4/ISO/AVC
Битрейт : 9199 Кбит/сек
Ширина : 1920 пикселей
Высота : 800 пикселей
Соотношение сторон : 2,40:1
Режим частоты кадров : Переменный
Частота кадров в оригинале : 23,976 кадра/сек
Цветовое пространство : YUV
Субдискретизация насыщенности : 4:2:0
Битовая глубина : 8 бит
Тип развёртки : Прогрессивная
Бит/(Пиксели*Кадры) : 0.250
Библиотека кодирования : x264 core 130 r2273 b3065e6
Настройки программы : cabac=1 / ref=5 / deblock=1:-3:-3 / analyse=0x3:0x113 / me=umh / subme=11 / psy=1 / psy_rd=1.05:0.02 / mixed_ref=1 / me_range=64 / chroma_me=1 / trellis=2 / 8x8dct=1 / cqm=0 / deadzone=21,11 / fast_pskip=0 / chroma_qp_offset=-3 / threads=12 / lookahead_threads=2 / sliced_threads=0 / nr=0 / decimate=1 / interlaced=0 / bluray_compat=0 / constrained_intra=0 / bframes=8 / b_pyramid=2 / b_adapt=2 / b_bias=0 / direct=3 / weightb=1 / open_gop=0 / weightp=2 / keyint=240 / keyint_min=23 / scenecut=40 / intra_refresh=0 / rc_lookahead=240 / rc=2pass / mbtree=1 / bitrate=9199 / ratetol=1.0 / qcomp=0.70 / qpmin=0 / qpmax=69 / qpstep=4 / cplxblur=20.0 / qblur=0.5 / vbv_maxrate=35000 / vbv_bufsize=30000 / nal_hrd=none / ip_ratio=1.40 / aq=1:0.65
Язык : English
Default : Да
Forced : Нет
Аудио #1
Идентификатор : 2
Формат : AC-3
Формат/Информация : Audio Coding 3
Профиль формата : Dolby Digital
Расширение режима : CM (complete main)
Параметр Endianness формата : Big
Идентификатор кодека : A_AC3
Продолжительность : 2 ч. 8 м.
Вид битрейта : Постоянный
Битрейт : 192 Кбит/сек
Каналы : 2 канала
Расположение каналов : Front: L R
Частота : 48,0 КГц
Битовая глубина : 16 бит
Метод сжатия : С потерями
Размер потока : 176 Мбайт (2%)
Заголовок : RUS / MVO
Язык : Russian
Default : Да
Forced : Нет
Аудио #2
Идентификатор : 3
Формат : DTS
Формат/Информация : Digital Theater Systems
Идентификатор кодека : A_DTS
Продолжительность : 2 ч. 8 м.
Вид битрейта : Постоянный
Битрейт : 1510 Кбит/сек
Каналы : 6 каналов
Расположение каналов : Front: L C R, Side: L R, LFE
Частота : 48,0 КГц
Битовая глубина : 24 бит
Метод сжатия : С потерями
Размер потока : 1,35 Гбайт (14%)
Заголовок : Original
Язык : English
Default : Нет
Forced : Нет
Текст #1
Идентификатор : 4
Формат : UTF-8
Идентификатор кодека : S_TEXT/UTF8
Идентификатор кодека/Информация : UTF-8 Plain Text
Заголовок : RUS / Forced
Язык : Russian
Default : Да
Forced : Нет
Текст #2
Идентификатор : 5
Формат : UTF-8
Идентификатор кодека : S_TEXT/UTF8
Идентификатор кодека/Информация : UTF-8 Plain Text
Заголовок : RUS / Full
Язык : Russian
Default : Нет
Forced : Нет
Текст #3
Идентификатор : 6
Формат : UTF-8
Идентификатор кодека : S_TEXT/UTF8
Идентификатор кодека/Информация : UTF-8 Plain Text
Заголовок : UKR / Full
Язык : Ukrainian
Default : Нет
Forced : Нет
Текст #4
Идентификатор : 7
Формат : UTF-8
Идентификатор кодека : S_TEXT/UTF8
Идентификатор кодека/Информация : UTF-8 Plain Text
Заголовок : Original / Forced
Язык : English
Default : Нет
Forced : Нет
Текст #5
Идентификатор : 8
Формат : UTF-8
Идентификатор кодека : S_TEXT/UTF8
Идентификатор кодека/Информация : UTF-8 Plain Text
Заголовок : Original / Full [SDH/COLOR]
Язык : English
Default : Нет
Forced : Нет
Меню
00:00:00.000 : en:00:00:00.000
00:09:07.630 : en:00:09:07.630
00:19:42.931 : en:00:19:42.931
00:31:42.525 : en:00:31:42.525
00:40:10.324 : en:00:40:10.324
00:49:49.611 : en:00:49:49.611
01:00:34.297 : en:01:00:34.297
01:10:33.479 : en:01:10:33.479
01:21:25.589 : en:01:21:25.589
01:31:00.830 : en:01:31:00.830
01:40:27.688 : en:01:40:27.688
01:50:13.857 : en:01:50:13.857
01:57:56.069 : en:01:57:56.069

Скриншоты

Скачать

Скачать торрент!

Как скачивать? · Что такое торрент? · Рейтинг и ограничения

Сайт не распространяет и не хранит электронные версии произведений, а лишь предоставляет доступ к создаваемому пользователями каталогу ссылок на торрент-файлы, которые содержат только списки хеш-сумм

[Профиль] [ЛС]
Показать сообщения:    
Ответить на тему

Текущее время: Сегодня 20:21

Часовой пояс: GMT + 4



Вы не можете начинать темы
Вы не можете отвечать на сообщения
Вы не можете редактировать свои сообщения
Вы не можете удалять свои сообщения
Вы не можете голосовать в опросах
Вы не можете прикреплять файлы к сообщениям
Вы не можете скачивать файлы